BitTorrentTracker PerecTracker.org
BitTorrentTracker PerecTracker.org
    
Регистрация  ·  Вход
 
 · 
Забыли пароль?

  • Сестры / Sisters (Джейсон Мур / Jason Moore) [2015, США, комедия, BDRip 1080p] [Theatrical Cut] Dub (CEE) + Original Eng + Sub Rus, Eng

    Ответить на тему
     
    Автор Сообщение

    Light

    Создавать темы 03-Май-2016 12:15

           

    [Цитировать]

    Сестры / Sisters
    Theatrical Cut
    -Страна: США
    Жанр: комедия
    Год выпуска: 2015
    Продолжительность: 01:57:46
    Перевод: Профессиональный (дублированный)
    Cубтитры: русские, английские
    Оригинальная аудиодорожка: английский-Режиссер: Джейсон Мур / Jason Moore-В ролях: Эми Полер, Тина Фей, Майя Рудольф, Айк Баринхолц, Джеймс Бролин, Джон Сина, Джон Легуизамо, Дайэнн Уист, Бобби Мойнахан, Грета Ли, Мэдисон Девенпорт, Рэйчел Дрэч, Сантино Фонтана, Бриттни Лоуэр, Саманта Би, Мэтт Оберг, Кейт МакКиннон, Джон Глейсер, Рене Голдсберри.-Описание: Две сестры решают устроить одну последнюю вечеринку в их семейном доме, прежде чем родители продадут его.-«Сёстры» — американская комедия режиссёра Джейсона Мура по сценарию Паулы Пелл. В картине снялись Тина Фей, Эми Полер, Джон Легуизамо, Джеймс Бролин, Айк Баринхолц, Эми Полер, Майя Рудольф и Джон Сина. Первоначальное название фильма — The Nest («Гнездо»).-Релиз от:
    Рип от ThD!-Тип релиза: BDRip 1080p
    Контейнер: MKV | Sample
    Видео: 1920x800 (2.40:1), 23.976 fps, x264@L4.1 ~12800 kbps avg
    Аудио 1: Russian 48 kHz, AC3, 3/2 (L,C,R,l,r) + LFE ch, 448.00 kbps avg | BD EE
    Аудио 2: English 48 kHz, DTS, 3/2 (L,C,R,l,r) + LFE ch, 1509.00 kbps avg | Original
    Аудио 3: English 48 kHz, AC3, 2/0 (L,R) ch, 192.00 kbps avg | Commentary
    Субтитры: русские форсированные itunes, русские полные itunes, английские полные SDH itunes

    Инфо

    Формат : Matroska
    Версия формата : Version 2
    Размер файла : 12,6 Гбайт
    Продолжительность : 1 ч. 57 м.
    Общий поток : 15,3 Мбит/сек
    Название фильма : Sisters (2015) - Release for HDCLUB
    Дата кодирования : UTC 2016-04-24 11:54:38
    Программа кодирования : mkvmerge v3.4.0 ('Rapunzel') built on May 15 2010 09:38:20
    Библиотека кодирования : libebml v0.8.0 + libmatroska v0.9.0
    Видео
    Идентификатор : 1
    Формат : AVC
    Формат/Информация : Advanced Video Codec
    Профиль формата : High@L4.1
    Параметр CABAC формата : Да
    Параметр ReFrames формата : 5 кадров
    Идентификатор кодека : V_MPEG4/ISO/AVC
    Продолжительность : 1 ч. 57 м.
    Битрейт : 12,8 Мбит/сек
    Ширина : 1920 пикселей
    Высота : 800 пикселей
    Соотношение сторон : 2,40:1
    Режим частоты кадров : Постоянный
    Частота кадров : 23,976 (24000/1001) кадра/сек
    Цветовое пространство : YUV
    Субдискретизация насыщенности : 4:2:0
    Битовая глубина : 8 бит
    Тип развёртки : Прогрессивная
    Бит/(Пиксели*Кадры) : 0.348
    Размер потока : 10,5 Гбайт (84%)
    Заголовок : Sisters (2015) - Release for HDCLUB
    Библиотека кодирования : x264 core 142 r2453kMod ea0ca51
    Настройки программы : opencl=1 / cabac=1 / ref=5 / deblock=1:-3:-3 / analyse=0x3:0x133 / me=umh / subme=9 / psy=1 / fade_compensate=0.00 / psy_rd=1.05:0.00 / mixed_ref=1 / me_range=24 / chroma_me=1 / trellis=2 / 8x8dct=1 / cqm=0 / deadzone=21,11 / fast_pskip=0 / chroma_qp_offset=-2 / threads=36 / lookahead_threads=6 / sliced_threads=0 / nr=0 / decimate=0 / interlaced=0 / bluray_compat=0 / constrained_intra=0 / fgo=0 / bframes=9 / b_pyramid=2 / b_adapt=2 / b_bias=0 / direct=3 / weightb=1 / open_gop=0 / weightp=2 / keyint=250 / keyint_min=23 / scenecut=40 / intra_refresh=0 / rc=crf / mbtree=0 / crf=17.5000 / qcomp=0.65 / qpmin=0 / qpmax=69 / qpstep=4 / ip_ratio=1.30 / pb_ratio=1.20 / aq=3:0.75
    Язык : English
    Default : Да
    Forced : Нет
    Аудио #1
    Идентификатор : 2
    Формат : AC-3
    Формат/Информация : Audio Coding 3
    Расширение режима : CM (complete main)
    Параметр Endianness формата : Big
    Идентификатор кодека : A_AC3
    Продолжительность : 1 ч. 57 м.
    Вид битрейта : Постоянный
    Битрейт : 448 Кбит/сек
    Каналы : 6 каналов
    Расположение каналов : Front: L C R, Side: L R, LFE
    Частота : 48,0 КГц
    Частота кадров : 31,250 кадров/сек (1536 spf)
    Метод сжатия : С потерями
    Размер потока : 377 Мбайт (3%)
    Заголовок : AC3 5.1 @ 448 kbps - DUB, Blu-ray CEE
    Язык : Russian
    Default : Да
    Forced : Нет
    Аудио #2
    Идентификатор : 3
    Формат : DTS
    Формат/Информация : Digital Theater Systems
    Режим : 16
    Параметр Endianness формата : Big
    Идентификатор кодека : A_DTS
    Продолжительность : 1 ч. 57 м.
    Вид битрейта : Постоянный
    Битрейт : 1509 Кбит/сек
    Каналы : 6 каналов
    Расположение каналов : Front: L C R, Side: L R, LFE
    Частота : 48,0 КГц
    Частота кадров : 93,750 кадра/сек (512 spf)
    Битовая глубина : 24 бит
    Метод сжатия : С потерями
    Размер потока : 1,24 Гбайт (10%)
    Заголовок : DTS 5.1 @ 1536 kbps
    Язык : English
    Default : Нет
    Forced : Нет
    Аудио #3
    Идентификатор : 4
    Формат : AC-3
    Формат/Информация : Audio Coding 3
    Профиль формата : Dolby Digital
    Расширение режима : CM (complete main)
    Параметр Endianness формата : Big
    Идентификатор кодека : A_AC3
    Продолжительность : 1 ч. 57 м.
    Вид битрейта : Постоянный
    Битрейт : 192 Кбит/сек
    Каналы : 2 канала
    Расположение каналов : Front: L R
    Частота : 48,0 КГц
    Частота кадров : 31,250 кадров/сек (1536 spf)
    Метод сжатия : С потерями
    Размер потока : 162 Мбайт (1%)
    Заголовок : AC3 2.0 @ 192 kbps - Feature Commentary With Director Jason Moore, Star/Producer Tina Fey, Star/Executive Producer Amy Poehler and Writer Paula Pell
    Язык : English
    Default : Нет
    Forced : Нет
    Текст #1
    Идентификатор : 5
    Формат : UTF-8
    Идентификатор кодека : S_TEXT/UTF8
    Идентификатор кодека/Информация : UTF-8 Plain Text
    Заголовок : Forced, iTunes
    Язык : Russian
    Default : Да
    Forced : Нет
    Текст #2
    Идентификатор : 6
    Формат : UTF-8
    Идентификатор кодека : S_TEXT/UTF8
    Идентификатор кодека/Информация : UTF-8 Plain Text
    Заголовок : iTunes
    Язык : Russian
    Default : Нет
    Forced : Нет
    Текст #3
    Идентификатор : 7
    Формат : UTF-8
    Идентификатор кодека : S_TEXT/UTF8
    Идентификатор кодека/Информация : UTF-8 Plain Text
    Заголовок : SDH, iTunes
    Язык : English
    Default : Нет
    Forced : Нет
    Меню
    00:00:00.000 : en:00:00:00.000
    00:07:48.175 : en:00:07:48.175
    00:13:55.543 : en:00:13:55.543
    00:17:50.861 : en:00:17:50.861
    00:23:15.018 : en:00:23:15.018
    00:28:56.526 : en:00:28:56.526
    00:33:05.107 : en:00:33:05.107
    00:38:01.445 : en:00:38:01.445
    00:43:41.869 : en:00:43:41.869
    00:47:39.063 : en:00:47:39.063
    00:53:23.490 : en:00:53:23.490
    00:59:15.927 : en:00:59:15.927
    01:06:01.748 : en:01:06:01.748
    01:13:13.971 : en:01:13:13.971
    01:19:03.029 : en:01:19:03.029
    01:26:25.304 : en:01:26:25.304
    01:32:26.332 : en:01:32:26.332
    01:40:15.466 : en:01:40:15.466
    01:46:12.239 : en:01:46:12.239
    01:50:56.774 : en:01:50:56.774

    Скриншоты

    Скачать .torrent

    Скачать торрент-файл бесплатно и на максимальной скорости!

    Как скачивать? · Что такое торрент? · Рейтинг и ограничения

    !ВНИМАНИЕ!
    Сайт не распространяет и не хранит электронные версии произведений, а занимается лишь лишь предоставлением доступа к создаваемому пользователями каталогу ссылок на торрент-файлы, которые содержат только списки хеш-сумм, убедительная просьба с жалобами обращаться напрямую к пользователю. Файлы для обмена на трекере предоставлены пользователями сайта, и администрация не несёт ответственности за их содержание. Просьба не заливать файлы, защищенные авторскими правами, а также файлы нелегального содержания!


    _________________
    [Профиль] [ЛС]
    Показать сообщения:    
    Ответить на тему

    Текущее время: Сегодня, в 11:11

    Часовой пояс: GMT + 2



    Вы не можете начинать темы
    Вы не можете отвечать на сообщения
    Вы не можете редактировать свои сообщения
    Вы не можете удалять свои сообщения
    Вы не можете голосовать в опросах
    Вы не можете прикреплять файлы к сообщениям
    Вы не можете скачивать файлы