BitTorrentTracker PerecTracker.org
BitTorrentTracker PerecTracker.org
    
Регистрация  ·  Вход
 
 · 
Забыли пароль?

  • Безумцы / The Crazies (Брек Эйснер / Breck Eisner) [2010, США, ОАЭ, ужасы, триллер, BDRemux 1080p] [AUS Transfer] Dub (ВидеоСервис) + AVO (Юрий Сербин) + VO (R1shpil) + 2x Sub (Rus, Eng) + Original Eng + 2x Commentary (Eng)

    Ответить на тему
     
    Автор Сообщение

    Light

    Создавать темы 03-Май-2016 12:15

           

    [Цитировать]

    Безумцы / The Crazies«Fear Thy Neighbor»
    Страна: США, ОАЭ
    Жанр: ужасы, триллер
    Год выпуска: 2010
    Продолжительность: 01:41:06
    Перевод 1: Профессиональный (дублированный) ВидеоСервис
    Перевод 2: Авторский (одноголосый закадровый) Юрий Сербин
    Перевод 3: Одноголосый закадровый R1shpil
    Cубтитры: русские [SDH/COLOR], английские [SDH/COLOR]
    Оригинальная аудиодорожка: английский
    -
    Режиссер: Брек Эйснер / Breck Eisner
    В ролях: Тимоти Олифант, Рада Митчелл, Джо Андерсон, Даниэль Панабэйкер, Кристи Линн Смит, Бретт Рикаби, Престон Бэйли, Джон Эйлуорд, Джо Риган, Гленн Моршауэр
    -
    Описание: В окрестностях небольшого американского городка падает самолет, на борту которого чрезвычайно опасный вирус. Вирус попадает в городской водопровод и жители один за другим начинают сходить с ума. Сумасшедших становится все больше и больше с каждым днем. И вот ты уже не знаешь, кто рядом с тобой: ребенок, который споет тебе песенку, или садист, мечтающий изрезать тебя на куски...
    Помощи ждать неоткуда. Военные оцепили город, объявили карантин и ждут, периодически отстреливая заразных.

    Тип релиза: BDRemux 1080p
    Контейнер: MKV
    Видео: MPEG-4 AVC / NTSC 16:9 / 1920x1080 (2,40:1) / 30112 kbps / 23,976 fps / 0.606 bit/pixel / High@L4.1
    Аудио 1: Russian / DTS-HD Master Audio / 5.1 Ch / 48 kHz / 3724 kbps / 24 bit (DTS Core: 5.1 Ch / 48 kHz / 1509 kbps / 24-bit) / DUB / ВидеоСервис
    Аудио 2: Russian / Dolby Digital Audio / 5.1 Ch / 48 kHz / 448 kbps / 16 bit / AVO / Юрий Сербин
    Аудио 3: Russian / Dolby Digital Audio / 5.1 Ch / 48 kHz / 448 kbps / 16 bit / VO / R1shpil
    Аудио 4: English / DTS-HD Master Audio / 5.1 Ch / 48 kHz / 4084 kbps / 24-bit (DTS Core: 5.1 Ch / 48 kHz / 1509 kbps / 24-bit) / Original
    Аудио 5: English / Dolby Digital Audio / 2.0 Ch / 48 kHz / 640 kbps / 16 bit / Commentary#1
    Аудио 6: English / Dolby Digital Audio / 2.0 Ch / 48 kHz / 448 kbps / 16 bit / Commentary#2
    Формат субтитров: softsub (SRT)
    Навигация по главам: есть

    MediaInfo

    Общее
    Уникальный идентификатор : 180338342097531155033334195746369627769 (0x87ABE6BCB099474DBC569A977592E679)
    Полное имя : N:\BDRemux 1080p\The Crazies.2010.BDRemux.1080p.mkv
    Формат : Matroska
    Версия формата : Version 4 / Version 2
    Размер файла : 28,2 Гбайт
    Продолжительность : 1 ч. 41 м.
    Режим общего битрейта : Переменный
    Общий поток : 39,9 Мбит/сек
    Дата кодирования : UTC 2016-05-01 00:47:14
    Программа кодирования : mkvmerge v9.1.0 ('Little Earthquakes') 64bit
    Библиотека кодирования : libebml v1.3.3 + libmatroska v1.4.4
    Видео
    Идентификатор : 1
    Формат : AVC
    Формат/Информация : Advanced Video Codec
    Профиль формата : High@L4.1
    Параметр CABAC формата : Да
    Параметр ReFrames формата : 4 кадра
    Параметр GOP формата : M=3, N=24
    Идентификатор кодека : V_MPEG4/ISO/AVC
    Продолжительность : 1 ч. 41 м.
    Вид битрейта : Переменный
    Битрейт : 30,1 Мбит/сек
    Максимальный битрейт : 35,0 Мбит/сек
    Ширина : 1920 пикселей
    Высота : 1080 пикселей
    Соотношение сторон : 16:9
    Режим частоты кадров : Постоянный
    Частота кадров : 23,976 (24000/1001) кадра/сек
    Стандарт вещания : NTSC
    Цветовое пространство : YUV
    Субдискретизация насыщенности : 4:2:0
    Битовая глубина : 8 бит
    Тип развёртки : Прогрессивная
    Бит/(Пиксели*Кадры) : 0.606
    Размер потока : 21,3 Гбайт (75%)
    Язык : English
    Default : Да
    Forced : Нет
    Цветовой диапазон : Limited
    Основные цвета : BT.709
    Характеристики трансфера : BT.709
    Коэффициенты матрицы : BT.709
    Аудио #1
    Идентификатор : 2
    Формат : DTS
    Формат/Информация : Digital Theater Systems
    Профиль формата : MA / Core
    Режим : 16
    Параметр Endianness формата : Big
    Идентификатор кодека : A_DTS
    Продолжительность : 1 ч. 41 м.
    Вид битрейта : Переменный / Постоянный
    Битрейт : 3717 Кбит/сек / 1509 Кбит/сек
    Каналы : 6 каналов
    Расположение каналов : Front: L C R, Side: L R, LFE
    Частота : 48,0 КГц
    Частота кадров : 93,750 кадра/сек (512 spf)
    Битовая глубина : 24 бит
    Метод сжатия : Без потерь / Lossy
    Размер потока : 2,62 Гбайт (9%)
    Заголовок : DUB / ВидеоСервис
    Язык : Russian
    Default : Да
    Forced : Нет
    Аудио #2
    Идентификатор : 3
    Формат : AC-3
    Формат/Информация : Audio Coding 3
    Расширение режима : CM (complete main)
    Параметр Endianness формата : Big
    Идентификатор кодека : A_AC3
    Продолжительность : 1 ч. 41 м.
    Вид битрейта : Постоянный
    Битрейт : 448 Кбит/сек
    Каналы : 6 каналов
    Расположение каналов : Front: L C R, Side: L R, LFE
    Частота : 48,0 КГц
    Частота кадров : 31,250 кадров/сек (1536 spf)
    Метод сжатия : С потерями
    Размер потока : 324 Мбайт (1%)
    Заголовок : AVO / Юрий Сербин
    Язык : Russian
    Default : Нет
    Forced : Нет
    Аудио #3
    Идентификатор : 4
    Формат : AC-3
    Формат/Информация : Audio Coding 3
    Расширение режима : CM (complete main)
    Параметр Endianness формата : Big
    Идентификатор кодека : A_AC3
    Продолжительность : 1 ч. 41 м.
    Вид битрейта : Постоянный
    Битрейт : 448 Кбит/сек
    Каналы : 6 каналов
    Расположение каналов : Front: L C R, Side: L R, LFE
    Частота : 48,0 КГц
    Частота кадров : 31,250 кадров/сек (1536 spf)
    Метод сжатия : С потерями
    Размер потока : 324 Мбайт (1%)
    Заголовок : VO / R1shpil
    Язык : Russian
    Default : Нет
    Forced : Нет
    Аудио #4
    Идентификатор : 5
    Формат : DTS
    Формат/Информация : Digital Theater Systems
    Профиль формата : MA / Core
    Режим : 16
    Параметр Endianness формата : Big
    Идентификатор кодека : A_DTS
    Продолжительность : 1 ч. 41 м.
    Вид битрейта : Переменный / Постоянный
    Битрейт : 4083 Кбит/сек / 1509 Кбит/сек
    Каналы : 6 каналов
    Расположение каналов : Front: L C R, Side: L R, LFE
    Частота : 48,0 КГц
    Частота кадров : 93,750 кадра/сек (512 spf)
    Битовая глубина : 24 бит
    Метод сжатия : Без потерь / Lossy
    Размер потока : 2,88 Гбайт (10%)
    Заголовок : Original
    Язык : English
    Default : Нет
    Forced : Нет
    Аудио #5
    Идентификатор : 6
    Формат : AC-3
    Формат/Информация : Audio Coding 3
    Расширение режима : CM (complete main)
    Параметр Endianness формата : Big
    Идентификатор кодека : A_AC3
    Продолжительность : 1 ч. 41 м.
    Вид битрейта : Постоянный
    Битрейт : 640 Кбит/сек
    Каналы : 2 канала
    Расположение каналов : Front: L R
    Частота : 48,0 КГц
    Частота кадров : 31,250 кадров/сек (1536 spf)
    Метод сжатия : С потерями
    Размер потока : 463 Мбайт (2%)
    Заголовок : Original / Commentary#1
    Язык : English
    Default : Нет
    Forced : Нет
    Аудио #6
    Идентификатор : 7
    Формат : AC-3
    Формат/Информация : Audio Coding 3
    Расширение режима : CM (complete main)
    Параметр Endianness формата : Big
    Идентификатор кодека : A_AC3
    Продолжительность : 1 ч. 41 м.
    Вид битрейта : Постоянный
    Битрейт : 448 Кбит/сек
    Каналы : 2 канала
    Расположение каналов : Front: L R
    Частота : 48,0 КГц
    Частота кадров : 31,250 кадров/сек (1536 spf)
    Метод сжатия : С потерями
    Размер потока : 324 Мбайт (1%)
    Заголовок : Original / Commentary#2
    Язык : English
    Default : Нет
    Forced : Нет
    Текст #1
    Идентификатор : 8
    Формат : UTF-8
    Идентификатор кодека : S_TEXT/UTF8
    Идентификатор кодека/Информация : UTF-8 Plain Text
    Продолжительность : 1 ч. 31 м.
    Битрейт : 46 бит/сек
    Count of elements : 787
    Размер потока : 31,3 Кбайт (0%)
    Заголовок : RUS / SDH / COLOR
    Язык : Russian
    Default : Нет
    Forced : Нет
    Текст #2
    Идентификатор : 9
    Формат : UTF-8
    Идентификатор кодека : S_TEXT/UTF8
    Идентификатор кодека/Информация : UTF-8 Plain Text
    Продолжительность : 1 ч. 35 м.
    Битрейт : 50 бит/сек
    Count of elements : 997
    Размер потока : 35,5 Кбайт (0%)
    Заголовок : Original / SDH / COLOR
    Язык : English
    Default : Нет
    Forced : Нет
    Меню
    00:00:00.000 : en:CHAPTER 01
    00:05:23.865 : en:CHAPTER 02
    00:11:45.288 : en:CHAPTER 03
    00:17:40.017 : en:CHAPTER 04
    00:21:51.727 : en:CHAPTER 05
    00:28:26.163 : en:CHAPTER 06
    00:36:26.476 : en:CHAPTER 07
    00:46:29.078 : en:CHAPTER 08
    00:53:25.411 : en:CHAPTER 09
    01:00:29.543 : en:CHAPTER 10
    01:07:22.205 : en:CHAPTER 11
    01:14:06.275 : en:CHAPTER 12
    01:16:47.895 : en:CHAPTER 13
    01:30:17.120 : en:CHAPTER 14
    01:33:41.115 : en:CHAPTER 15

    Скриншоты

    Скачать .torrent

    Скачать торрент-файл бесплатно и на максимальной скорости!

    Как скачивать? · Что такое торрент? · Рейтинг и ограничения

    !ВНИМАНИЕ!
    Сайт не распространяет и не хранит электронные версии произведений, а занимается лишь лишь предоставлением доступа к создаваемому пользователями каталогу ссылок на торрент-файлы, которые содержат только списки хеш-сумм, убедительная просьба с жалобами обращаться напрямую к пользователю. Файлы для обмена на трекере предоставлены пользователями сайта, и администрация не несёт ответственности за их содержание. Просьба не заливать файлы, защищенные авторскими правами, а также файлы нелегального содержания!


    _________________
    [Профиль] [ЛС]
    Показать сообщения:    
    Ответить на тему

    Текущее время: Сегодня, в 03:16

    Часовой пояс: GMT + 2



    Вы не можете начинать темы
    Вы не можете отвечать на сообщения
    Вы не можете редактировать свои сообщения
    Вы не можете удалять свои сообщения
    Вы не можете голосовать в опросах
    Вы не можете прикреплять файлы к сообщениям
    Вы не можете скачивать файлы