BitTorrentTracker PerecTracker.org
BitTorrentTracker PerecTracker.org
    
Регистрация  ·  Вход
 
 · 
Забыли пароль?

  • Он снова здесь / Er ist wieder da / Look Who\'s Back (Давид Внендт / David Wnendt) [2015, Германия, комедия, BDRemux 1080p] AVO (Антон Карповский) + Original Ger + Sub Eng, Spa, Fra

    Ответить на тему
     
    Автор Сообщение

    Light

    Создавать темы 03-Май-2016 12:15

           

    [Цитировать]

    Он снова здесь / Er ist wieder da / Look Who's Back
    Страна: Германия
    Студия: Aversano Films, Katalyst Films, Lionsgate
    Жанр: Комедия
    Год выпуска: 2015
    Продолжительность: 01:55:43
    Перевод: Авторский (одноголосый закадровый) Антон Карповский
    Cубтитры: английские, французские, испанские
    Оригинальная аудиодорожка: немецкий
    Режиссер: Давид Внендт / David Wnendt
    В ролях: Оливер Мазуччи, Фабиан Буш, Кристоф Мария Хербст, Катя Риман, Франциска Вульф, Ларс Рудольф, Михаэль Кесслер, Даниэль Аминати, Даги Би, Фред Аарон Блаке, Роберто Бланко, СрисТезз, Пит Фукс, Штефан Гросман, Кристиан Хартинг, Патрик Генрих, Клаас Хойфер-Умлауф
    Описание: Берлин, наши дни. На заброшенном пустыре возвращается к жизни черный кошмар XX века — Адольф Гитлер, кровавый диктатор, погрузивший Германию, а за нею и половину человечества в ужас Второй мировой войны, непосредственный виновник десятков миллионов смертей. Ни власти, ни сторонников, ни жилья, ни денег у него теперь нет, но есть опыт восхождения со дна на вершины и твердая вера в победу национал-социализма. Неподготовленный мир принимает бывшего диктатора за гениального актера, его гневные речи взрывают интернет, и… Гитлер второй раз в жизни обретает статус суперзвезды. Чем же это обернется в наше время?
    Дополнительная информация:
    Автор релиза - ylnian
    Заказ перевода у Антона Карповского (апрель 2016 г.) - ylnian
    За сборку дороги спасибо rammzez
    Источник - Er.Ist.Wieder.Da.2015.GERMAN.COMPLETE.BLURAY-MIDDLE
    Сохранены чаптеры с BluRay


    Сэмпл: https://yadi.sk/i/7Cf2fTUcrRUUU
    Качество видео: BDRemux 1080p
    Формат видео: MKV
    Видео: H.264, 1920x1080, ~20000 kbps, 24.000 fps
    Аудио 1: Русский DTS-HD MA 5.1, 48 kHz, 24 bit, 3747 kbps (DTS Core: 5.1 / 48 kHz / 1509 kbps / 24-bit) - AVO
    Аудио 2: Немецкий DTS-HD MA 5.1, 48 kHz, 24 bit, 3718 kbps (DTS Core: 5.1 / 48 kHz / 1509 kbps / 24-bit)
    Формат субтитров: softsub (SRT)

    MediaInfo

    Общее
    Уникальный идентификатор : 184956349439035624900374664829444766055 (0x8B254C13EAE95324A47187B4A1733967)
    Полное имя : B:\Er.ist.wieder.da.2015.BDRemux-ylnian.mkv
    Формат : Matroska
    Версия формата : Version 4 / Version 2
    Размер файла : 22,2 Гбайт
    Продолжительность : 1 ч. 55 м.
    Режим общего битрейта : Переменный
    Общий поток : 27,5 Мбит/сек
    Название фильма : Er.ist.wieder.da.2015.BDRemux-ylnian
    Дата кодирования : UTC 2016-05-01 15:37:07
    Программа кодирования : mkvmerge v9.1.0 ('Little Earthquakes') 64bit
    Библиотека кодирования : libebml v1.3.3 + libmatroska v1.4.4
    Видео
    Идентификатор : 1
    Формат : AVC
    Формат/Информация : Advanced Video Codec
    Профиль формата : High@L4.1
    Параметр CABAC формата : Да
    Параметр ReFrames формата : 4 кадра
    Параметр GOP формата : M=3, N=24
    Идентификатор кодека : V_MPEG4/ISO/AVC
    Продолжительность : 1 ч. 55 м.
    Вид битрейта : Переменный
    Битрейт : 20,0 Мбит/сек
    Максимальный битрейт : 35,0 Мбит/сек
    Ширина : 1920 пикселей
    Высота : 1080 пикселей
    Соотношение сторон : 16:9
    Режим частоты кадров : Постоянный
    Частота кадров : 24,000 кадра/сек
    Стандарт вещания : NTSC
    Цветовое пространство : YUV
    Субдискретизация насыщенности : 4:2:0
    Битовая глубина : 8 бит
    Тип развёртки : Прогрессивная
    Бит/(Пиксели*Кадры) : 0.402
    Размер потока : 16,2 Гбайт (73%)
    Заголовок : Er.ist.wieder.da.2015.BDRemux-ylnian
    Язык : German
    Default : Да
    Forced : Да
    Цветовой диапазон : Limited
    Основные цвета : BT.709
    Характеристики трансфера : BT.709
    Коэффициенты матрицы : BT.709
    Аудио #1
    Идентификатор : 2
    Формат : DTS
    Формат/Информация : Digital Theater Systems
    Профиль формата : MA / Core
    Режим : 16
    Параметр Endianness формата : Big
    Идентификатор кодека : A_DTS
    Продолжительность : 1 ч. 55 м.
    Вид битрейта : Переменный / Постоянный
    Битрейт : 3747 Кбит/сек / 1509 Кбит/сек
    Каналы : 6 каналов
    Расположение каналов : Front: L C R, Side: L R, LFE
    Частота : 48,0 КГц
    Частота кадров : 93,750 кадра/сек (512 spf)
    Битовая глубина : 24 бит
    Метод сжатия : Без потерь / Lossy
    Размер потока : 3,03 Гбайт (14%)
    Заголовок : AVO (DTS-HD 5.1 3747 kbps)
    Язык : Russian
    Default : Да
    Forced : Да
    Аудио #2
    Идентификатор : 3
    Формат : DTS
    Формат/Информация : Digital Theater Systems
    Профиль формата : MA / Core
    Режим : 16
    Параметр Endianness формата : Big
    Идентификатор кодека : A_DTS
    Продолжительность : 1 ч. 55 м.
    Вид битрейта : Переменный / Постоянный
    Битрейт : 3718 Кбит/сек / 1509 Кбит/сек
    Каналы : 6 каналов
    Расположение каналов : Front: L C R, Side: L R, LFE
    Частота : 48,0 КГц
    Частота кадров : 93,750 кадра/сек (512 spf)
    Битовая глубина : 24 бит
    Метод сжатия : Без потерь / Lossy
    Размер потока : 3,01 Гбайт (14%)
    Заголовок : DTS-HD 5.1 3718 kbps
    Язык : German
    Default : Нет
    Forced : Нет
    Текст #1
    Идентификатор : 4
    Формат : UTF-8
    Идентификатор кодека : S_TEXT/UTF8
    Идентификатор кодека/Информация : UTF-8 Plain Text
    Продолжительность : 1 ч. 50 м.
    Битрейт : 55 бит/сек
    Count of elements : 1246
    Размер потока : 45,0 Кбайт (0%)
    Язык : English
    Default : Нет
    Forced : Нет
    Текст #2
    Идентификатор : 5
    Формат : UTF-8
    Идентификатор кодека : S_TEXT/UTF8
    Идентификатор кодека/Информация : UTF-8 Plain Text
    Продолжительность : 1 ч. 50 м.
    Битрейт : 66 бит/сек
    Count of elements : 1244
    Размер потока : 53,5 Кбайт (0%)
    Язык : French
    Default : Нет
    Forced : Нет
    Текст #3
    Идентификатор : 6
    Формат : UTF-8
    Идентификатор кодека : S_TEXT/UTF8
    Идентификатор кодека/Информация : UTF-8 Plain Text
    Продолжительность : 1 ч. 50 м.
    Битрейт : 62 бит/сек
    Count of elements : 1263
    Размер потока : 50,3 Кбайт (0%)
    Язык : Spanish
    Default : Нет
    Forced : Нет
    Меню
    00:00:00.000 : de:00:00:00.000
    00:09:05.458 : de:00:09:05.458
    00:23:03.833 : de:00:23:03.833
    00:33:01.917 : de:00:33:01.917
    00:41:08.667 : de:00:41:08.667
    00:48:00.000 : de:00:48:00.000
    00:57:18.667 : de:00:57:18.667
    01:11:04.042 : de:01:11:04.042
    01:22:45.583 : de:01:22:45.583
    01:33:03.542 : de:01:33:03.542
    01:48:09.542 : de:01:48:09.542

    Скриншот c названием фильма

    Скриншоты

    Скачать .torrent

    Скачать торрент-файл бесплатно и на максимальной скорости!

    Как скачивать? · Что такое торрент? · Рейтинг и ограничения

    !ВНИМАНИЕ!
    Сайт не распространяет и не хранит электронные версии произведений, а занимается лишь лишь предоставлением доступа к создаваемому пользователями каталогу ссылок на торрент-файлы, которые содержат только списки хеш-сумм, убедительная просьба с жалобами обращаться напрямую к пользователю. Файлы для обмена на трекере предоставлены пользователями сайта, и администрация не несёт ответственности за их содержание. Просьба не заливать файлы, защищенные авторскими правами, а также файлы нелегального содержания!


    _________________
    [Профиль] [ЛС]
    Показать сообщения:    
    Ответить на тему

    Текущее время: Сегодня, в 15:51

    Часовой пояс: GMT + 2



    Вы не можете начинать темы
    Вы не можете отвечать на сообщения
    Вы не можете редактировать свои сообщения
    Вы не можете удалять свои сообщения
    Вы не можете голосовать в опросах
    Вы не можете прикреплять файлы к сообщениям
    Вы не можете скачивать файлы