BitTorrentTracker PerecTracker.org
BitTorrentTracker PerecTracker.org
    
Регистрация  ·  Вход
 
 · 
Забыли пароль?

  • Человек-паук 3: Враг в отражении / Spider-Man 3 (Сэм Рэйми / Sam Raimi) [2007, США, боевик, фэнтези, приключения, HDTV 1080i] [Open Matte] Dub + AVO (Королев) + Sub Rus, Eng + Original Eng

    Ответить на тему
     
    Автор Сообщение

    Light

    Создавать темы 03-Май-2016 12:15

           

    [Цитировать]

    Человек-паук 3: Враг в отражении / Spider-Man 3 / Open Matte
    Страна: США
    Жанр: боевик, фэнтези, приключения
    Год выпуска: 2007
    Продолжительность: 02:19:10
    Перевод: Профессиональный (дублированный)
    Перевод 2: Авторский (одноголосый закадровый) Королев
    Cубтитры: русские, английские, английские SDH
    Оригинальная аудиодорожка: английский
    Режиссер: Сэм Рэйми / Sam Raimi
    В ролях: Тоби Магуайр, Кирстен Данст, Джеймс Франко, Томас Хейден Черч, Тофер Грэйс, Брайс Даллас Ховард, Розмари Харрис, Дж.К. Симмонс, Джеймс Кромуэлл, Тереза Расселл
    Описание: Прошло пять лет с тех пор, как Питер Паркер стал Человеком-пауком, и три года, как он поклялся не надевать больше свой костюм супергероя. Но все меняется… Под влиянием сверхъестественного вируса в Человеке-пауке пробуждаются темные силы. Желание обладать новыми сверхвозможностями борется с отчаянными попытками победить зло в себе.
    Доп. информация: Наполнение кадра отличается от BD http://screenshotcomparison.com/comparison/171461 Дорожка с дубляжем с HDTV заменена на дорожку с BDRip + добавлены другие дорожки и субтитры
    Сэмпл: http://multi-up.com/1100036
    Тип релиза: HDTV 1080i
    Контейнер: MKV
    Видео: AVC, 1920x1080 (16:9), 23.976 fps, 4 500 Kbps (0.065 bit/pixel)
    Аудио: AC-3, 48.0 KHz, 6 ch, 640 Kbps, CBR (Russian) - dub
    Аудио 2: DTS, 48.0 KHz, 6 ch, 1 510 Kbps, CBR (Russian) - avo
    Аудио 3: DTS, 48.0 KHz, 6 ch, 1 510 Kbps, CBR (English)
    Формат субтитров: softsub (SRT)

    MediaInfo

    Общее
    Уникальный идентификатор : 251439932167511663277280834767626881242 (0xBD2991C7F9560673B895674A1B8EC8DA)
    Полное имя : M:\Человек паук 3.mkv
    Формат : Matroska
    Версия формата : Version 2
    Размер файла : 6,85 Гбайт
    Продолжительность : 2 ч. 19 м.
    Общий поток : 7051 Кбит/сек
    Название фильма : Человек-паук 3: Враг в отражении / Spider-Man 3 (2007)
    Дата кодирования : UTC 2016-05-01 14:33:00
    Программа кодирования : mkvmerge v8.2.0 ('World of Adventure') 64bit
    Библиотека кодирования : libebml v1.3.1 + libmatroska v1.4.2
    Видео
    Идентификатор : 1
    Формат : AVC
    Формат/Информация : Advanced Video Codec
    Профиль формата : High@L4
    Параметр CABAC формата : Да
    Параметр ReFrames формата : 4 кадра
    Идентификатор кодека : V_MPEG4/ISO/AVC
    Продолжительность : 2 ч. 19 м.
    Вид битрейта : Постоянный
    Битрейт : 3251 Кбит/сек
    Номинальный битрейт : 4500 Кбит/сек
    Ширина : 1920 пикселей
    Высота : 1080 пикселей
    Соотношение сторон : 16:9
    Режим частоты кадров : Постоянный
    Частота кадров : 23,976 (24000/1001) кадра/сек
    Цветовое пространство : YUV
    Субдискретизация насыщенности : 4:2:0
    Битовая глубина : 8 бит
    Тип развёртки : Прогрессивная
    Бит/(Пиксели*Кадры) : 0.065
    Размер потока : 3,16 Гбайт (46%)
    Язык : English
    Default : Да
    Forced : Нет
    Аудио #1
    Идентификатор : 2
    Формат : AC-3
    Формат/Информация : Audio Coding 3
    Расширение режима : CM (complete main)
    Параметр Endianness формата : Big
    Идентификатор кодека : A_AC3
    Продолжительность : 2 ч. 19 м.
    Вид битрейта : Постоянный
    Битрейт : 640 Кбит/сек
    Каналы : 6 каналов
    Расположение каналов : Front: L C R, Side: L R, LFE
    Частота : 48,0 КГц
    Частота кадров : 31,250 кадров/сек (1536 spf)
    Метод сжатия : С потерями
    Задержка видео : 4 мс.
    Размер потока : 637 Мбайт (9%)
    Заголовок : Профессиональный (полное дублирование) BD CEE
    Язык : Russian
    Default : Да
    Forced : Нет
    Аудио #2
    Идентификатор : 3
    Формат : DTS
    Формат/Информация : Digital Theater Systems
    Режим : 16
    Параметр Endianness формата : Big
    Идентификатор кодека : A_DTS
    Продолжительность : 2 ч. 19 м.
    Вид битрейта : Постоянный
    Битрейт : 1510 Кбит/сек
    Каналы : 6 каналов
    Расположение каналов : Front: L C R, Side: L R, LFE
    Частота : 48,0 КГц
    Частота кадров : 93,750 кадра/сек (512 spf)
    Битовая глубина : 24 бит
    Метод сжатия : С потерями
    Задержка видео : 4 мс.
    Размер потока : 1,47 Гбайт (21%)
    Заголовок : Авторский (одноголосый закадровый) Королев
    Язык : Russian
    Default : Нет
    Forced : Нет
    Аудио #3
    Идентификатор : 4
    Формат : DTS
    Формат/Информация : Digital Theater Systems
    Режим : 16
    Параметр Endianness формата : Big
    Идентификатор кодека : A_DTS
    Продолжительность : 2 ч. 19 м.
    Вид битрейта : Постоянный
    Битрейт : 1510 Кбит/сек
    Каналы : 6 каналов
    Расположение каналов : Front: L C R, Side: L R, LFE
    Частота : 48,0 КГц
    Частота кадров : 93,750 кадра/сек (512 spf)
    Битовая глубина : 24 бит
    Метод сжатия : С потерями
    Задержка видео : 4 мс.
    Размер потока : 1,47 Гбайт (21%)
    Язык : English
    Default : Нет
    Forced : Нет
    Текст #1
    Идентификатор : 5
    Формат : UTF-8
    Идентификатор кодека : S_TEXT/UTF8
    Идентификатор кодека/Информация : UTF-8 Plain Text
    Заголовок : Киномания
    Язык : Russian
    Default : Нет
    Forced : Нет
    Текст #2
    Идентификатор : 6
    Формат : UTF-8
    Идентификатор кодека : S_TEXT/UTF8
    Идентификатор кодека/Информация : UTF-8 Plain Text
    Язык : English
    Default : Нет
    Forced : Нет
    Текст #3
    Идентификатор : 7
    Формат : UTF-8
    Идентификатор кодека : S_TEXT/UTF8
    Идентификатор кодека/Информация : UTF-8 Plain Text
    Заголовок : SDH
    Язык : English
    Default : Нет
    Forced : Нет

    Скриншоты


    Скачать .torrent

    Скачать торрент-файл бесплатно и на максимальной скорости!

    Как скачивать? · Что такое торрент? · Рейтинг и ограничения

    !ВНИМАНИЕ!
    Сайт не распространяет и не хранит электронные версии произведений, а занимается лишь лишь предоставлением доступа к создаваемому пользователями каталогу ссылок на торрент-файлы, которые содержат только списки хеш-сумм, убедительная просьба с жалобами обращаться напрямую к пользователю. Файлы для обмена на трекере предоставлены пользователями сайта, и администрация не несёт ответственности за их содержание. Просьба не заливать файлы, защищенные авторскими правами, а также файлы нелегального содержания!


    _________________
    [Профиль] [ЛС]
    Показать сообщения:    
    Ответить на тему

    Текущее время: Сегодня, в 14:21

    Часовой пояс: GMT + 2



    Вы не можете начинать темы
    Вы не можете отвечать на сообщения
    Вы не можете редактировать свои сообщения
    Вы не можете удалять свои сообщения
    Вы не можете голосовать в опросах
    Вы не можете прикреплять файлы к сообщениям
    Вы не можете скачивать файлы