BitTorrentTracker PerecTracker.org
BitTorrentTracker PerecTracker.org
    
Регистрация  ·  Вход
 
 · 
Забыли пароль?

  • Плохие мальчики / Bad Boys (Рик Розентал / Rick Rosenthal) [1983, США, триллер, драма, криминал, BDRip 720p] MVO (CP Digital) + MVO (ТК Россия) + VO (Д. Есарев) + Original Eng + Sub Rus, Eng

    Ответить на тему
     
    Автор Сообщение

    Light

    Создавать темы 03-Май-2016 12:15

           

    [Цитировать]

    Плохие мальчики / Bad Boys
    Страна: США
    Студия: EMI Films Ltd., Solofilm
    Жанр: Триллер, драма, криминал
    Год выпуска: 1983
    Продолжительность: 02:03:49
    Перевод 1: Профессиональный (многоголосый закадровый) CP Digital
    Перевод 2: Профессиональный (многоголосый закадровый) ТК Россия
    Перевод 3: Одноголосый закадровый Д. Есарев
    Cубтитры: Русские, Английские
    Оригинальная аудиодорожка: Английский
    Режиссер: Рик Розентал / Rick Rosenthal
    В ролях: Шон Пенн, Рени Сантони, Джим [цензура], Эрик Гарри, Эсай Моралес, Элли Шиди, Клэнси Браун, Роберт Ли Раш, Джон Зенда, Алан Рак, Тони Мокус мл., Erik Barefield, Дин Фортунато, Лоуренс Мах, Хорхе Ноа, Рэй Кабальеро, Марта Де Ла Круз, Рэй Рамирез, Юджин Дж. Энтони, Эндрю Горман, Марко А. Дэвид, Дон Джеймс, Джейн Олдермен, Рик Розенталь, Фран Стоун, Омар С. Саундерс, Кевин Спрингс, Эрик Дэвид, John San Juro, Adam Pelty, Робин Коулмэн, Марвин Таунс, Аарон Холден, Билл Мартин мл., Майлс О’Доннелл, Эдвард Кернс, Бренда Джойс Майнор, Richard Lee Padget, Питер Киркпатрик, Дэвид Баррет, Джордж Барроу, Сэл Амато, Джейсон Гедрик, Peter Kobernik, Роберт Минкофф, Дик Солленбергер, Роб Уимберли, Родерик Уимберли
    Описание: Предводители двух враждебных молодежных банд посажены в исправительную тюрьму для несовершеннолетних преступников. Взаимная ненависть и нарастающее давление заключенных, жаждущих крови, толкает их на смертельную схватку…-Рейтинг
    -Сэмпл
    Тип релиза: BDRip 720p
    Контейнер: MKV
    Видео: 1280x694 (1,85:1), 23.976 fps, x264, ~8466 kbps | Encode by LoVeRoSe
    Аудио 1: Russian: 48 kHz, AC3, 2/0 (L,R) ch, ~192 kbps | Многоголосый закадровый, CP Digital
    Аудио 2: Russian: 48 kHz, AC3, 2/0 (L,R) ch, ~192 kbps | Многоголосый закадровый, ТК Россия+вставки студии Велес
    Аудио 3: Russian: 48 kHz, DTS, 2/0 (L,R) ch, ~1509 kbps | Одноголосый закадровый, Д. Есарев
    Аудио 4: English: 48 kHz, DTS, 2/0 (L,R) ch, ~1509 kbps
    Субтитры: Русские, Английские
    Формат субтитров: softsub (SRT)

    Дополнительно

    Дорожки №1 и 2 взяты с этого ремукса. Работа со звуком Diablo.
    Перевод Д. Есарева доступен благодаря пользователям kidman644, mv73, Shrooms, shandorra, romic2110, Indian1990, VitVil. Работа со звуком Переводман.

    MediaInfo

    Общее
    Unique ID : 183917442225430162782331959840280192274 (0x8A5D35FF5BB16642BBD2EE185250A512)
    Complete name : E:\video_rutracker\Bad.Boys.1983.720p.BluRay.3xRus.Eng.x264.mkv
    Format : Matroska
    Format version : Version 2
    File size : 10,6 Гбайт
    Duration : 2 ч. 3 м.
    Overall bit rate : 12,3 Мбит/сек
    Movie name : Bad.Boys.1983 igrok2012
    Encoded date : UTC 2016-05-02 09:10:15
    Writing application : mkvmerge v8.3.0 ('Over the Horizon') 64bit
    Writing library : libebml v1.3.1 + libmatroska v1.4.2
    Cover : Yes
    Attachments : cover.jpg
    Видео
    ID : 1
    Format : AVC
    Format/Info : Advanced Video Codec
    Format profile : High@L4.1
    Format settings, CABAC : Да
    Format settings, ReFrames : 9 кадров
    Codec ID : V_MPEG4/ISO/AVC
    Duration : 2 ч. 3 м.
    Bit rate : 8466 Кбит/сек
    Width : 1280 пикселей
    Height : 694 пикселя
    Display aspect ratio : 1,85:1
    Frame rate mode : Постоянный
    Frame rate : 23,976 (24000/1001) кадра/сек
    Color space : YUV
    Chroma subsampling : 4:2:0
    Bit depth : 8 бит
    Scan type : Прогрессивная
    Bits/(Pixel*Frame) : 0.398
    Stream size : 7,32 Гбайт (69%)
    Title : Encode by LoVeRoSe
    Writing library : x264 core 130 r2273kMod b3065e6
    Encoding settings : cabac=1 / ref=9 / deblock=1:-3:-3 / analyse=0x3:0x113 / me=tesa / subme=10 / psy=1 / fade_compensate=0.00 / psy_rd=1.20:0.00 / mixed_ref=1 / me_range=32 / chroma_me=1 / trellis=2 / 8x8dct=1 / cqm=0 / deadzone=21,11 / fast_pskip=1 / chroma_qp_offset=-2 / threads=12 / lookahead_threads=2 / sliced_threads=0 / nr=0 / decimate=1 / interlaced=0 / bluray_compat=0 / constrained_intra=0 / bframes=7 / b_pyramid=2 / b_adapt=2 / b_bias=0 / direct=3 / weightb=0 / open_gop=0 / weightp=2 / keyint=241 / keyint_min=22 / scenecut=40 / intra_refresh=0 / rc=crf / mbtree=0 / crf=16.0000 / qcomp=0.60 / qpmin=0 / qpmax=69 / qpstep=4 / ip_ratio=1.40 / pb_ratio=1.30 / aq=1:0.70
    Language : English
    Default : Да
    Forced : Нет
    Аудио #1
    ID : 2
    Format : AC-3
    Format/Info : Audio Coding 3
    Mode extension : CM (complete main)
    Format settings, Endianness : Big
    Codec ID : A_AC3
    Duration : 2 ч. 3 м.
    Bit rate mode : Постоянный
    Bit rate : 192 Кбит/сек
    Channel(s) : 2 канала
    Channel positions : Front: L R
    Sampling rate : 48,0 КГц
    Frame rate : 31,250 кадров/сек (1536 spf)
    Compression mode : С потерями
    Stream size : 170 Мбайт (2%)
    Title : Многоголосый закадровый, CP Digital
    Language : Russian
    Default : Да
    Forced : Нет
    Аудио #2
    ID : 3
    Format : AC-3
    Format/Info : Audio Coding 3
    Mode extension : CM (complete main)
    Format settings, Endianness : Big
    Codec ID : A_AC3
    Duration : 2 ч. 3 м.
    Bit rate mode : Постоянный
    Bit rate : 192 Кбит/сек
    Channel(s) : 2 канала
    Channel positions : Front: L R
    Sampling rate : 48,0 КГц
    Frame rate : 31,250 кадров/сек (1536 spf)
    Compression mode : С потерями
    Stream size : 170 Мбайт (2%)
    Title : Многоголосый закадровый, ТК Россия+вставки студии Велес
    Language : Russian
    Default : Нет
    Forced : Нет
    Аудио #3
    ID : 4
    Format : DTS
    Format/Info : Digital Theater Systems
    Mode : 16
    Format settings, Endianness : Big
    Codec ID : A_DTS
    Duration : 2 ч. 3 м.
    Bit rate mode : Постоянный
    Bit rate : 1509 Кбит/сек
    Channel(s) : 2 канала
    Channel positions : Front: L R
    Sampling rate : 48,0 КГц
    Frame rate : 93,750 кадра/сек (512 spf)
    Bit depth : 24 бит
    Compression mode : С потерями
    Stream size : 1,31 Гбайт (12%)
    Title : Одноголосый закадровый, Д. Есарев
    Language : Russian
    Default : Нет
    Forced : Нет
    Аудио #4
    ID : 5
    Format : DTS
    Format/Info : Digital Theater Systems
    Mode : 16
    Format settings, Endianness : Big
    Codec ID : A_DTS
    Duration : 2 ч. 3 м.
    Bit rate mode : Постоянный
    Bit rate : 1509 Кбит/сек
    Channel(s) : 2 канала
    Channel positions : Front: L R
    Sampling rate : 48,0 КГц
    Frame rate : 93,750 кадра/сек (512 spf)
    Bit depth : 24 бит
    Compression mode : С потерями
    Stream size : 1,31 Гбайт (12%)
    Language : English
    Default : Нет
    Forced : Нет
    Аудио #5
    ID : 6
    Format : AC-3
    Format/Info : Audio Coding 3
    Mode extension : CM (complete main)
    Format settings, Endianness : Big
    Codec ID : A_AC3
    Duration : 2 ч. 3 м.
    Bit rate mode : Постоянный
    Bit rate : 192 Кбит/сек
    Channel(s) : 2 канала
    Channel positions : Front: L R
    Sampling rate : 48,0 КГц
    Frame rate : 31,250 кадров/сек (1536 spf)
    Compression mode : С потерями
    Stream size : 170 Мбайт (2%)
    Title : Director's Commentary
    Language : English
    Default : Нет
    Forced : Нет
    Текст #1
    ID : 7
    Format : UTF-8
    Codec ID : S_TEXT/UTF8
    Codec ID/Info : UTF-8 Plain Text
    Language : Russian
    Default : Нет
    Forced : Нет
    Текст #2
    ID : 8
    Format : UTF-8
    Codec ID : S_TEXT/UTF8
    Codec ID/Info : UTF-8 Plain Text
    Language : English
    Default : Нет
    Forced : Нет
    Меню
    00:00:00.000 : en:Start
    00:07:53.556 : en:Smash and Grab
    00:17:01.312 : en:Mick and J.C.
    00:25:13.887 : en:Deal Gone Bad
    00:35:03.101 : en:Fresh Meat
    00:44:41.596 : en:Live on the Inside
    00:53:44.847 : en:Code of Silence
    01:05:24.087 : en:New Barn Boss
    01:10:38.192 : en:Rape
    01:22:23.480 : en:Unauthorized Conjugal Visit
    01:27:51.224 : en:Paco Arrives
    01:38:19.060 : en:Ready to Blow
    01:42:51.707 : en:Surprise Inspection
    01:51:14.042 : en:"Here Comes the Night"
    01:56:35.238 : en:Debt of Blood
    01:58:26.057 : en:Redemption

    Скриншоты


    Скачать .torrent

    Скачать торрент-файл бесплатно и на максимальной скорости!

    Как скачивать? · Что такое торрент? · Рейтинг и ограничения

    !ВНИМАНИЕ!
    Сайт не распространяет и не хранит электронные версии произведений, а занимается лишь лишь предоставлением доступа к создаваемому пользователями каталогу ссылок на торрент-файлы, которые содержат только списки хеш-сумм, убедительная просьба с жалобами обращаться напрямую к пользователю. Файлы для обмена на трекере предоставлены пользователями сайта, и администрация не несёт ответственности за их содержание. Просьба не заливать файлы, защищенные авторскими правами, а также файлы нелегального содержания!


    _________________
    [Профиль] [ЛС]
    Показать сообщения:    
    Ответить на тему

    Текущее время: Сегодня, в 03:05

    Часовой пояс: GMT + 2



    Вы не можете начинать темы
    Вы не можете отвечать на сообщения
    Вы не можете редактировать свои сообщения
    Вы не можете удалять свои сообщения
    Вы не можете голосовать в опросах
    Вы не можете прикреплять файлы к сообщениям
    Вы не можете скачивать файлы