BitTorrentTracker PerecTracker.org
BitTorrentTracker PerecTracker.org
    
Регистрация  ·  Вход
 
 · 
Забыли пароль?

  • Кража автомобилей / Stealing Cars (Брэдли Каплан / Bradley Kaplan) [2015, США, драма, WEB-DL 1080p] MVO + Sub Eng + Original Eng

    Ответить на тему
     
    Автор Сообщение

    Light

    Создавать темы 03-Май-2016 12:15

           

    [Цитировать]

    Кража автомобилей / Stealing Cars
    Страна: США
    Студия: Leverage Management
    Жанр: драма
    Год выпуска: 2015
    Продолжительность: 01:41:36
    Перевод: Профессиональный (многоголосый закадровый)
    Cубтитры: английские
    Оригинальная аудиодорожка: английский
    Режиссер: Брэдли Каплан / Bradley Kaplan
    В ролях: Эмори Коэн, Уильям Х. Мэйси, Джон Легуизамо, Фелисити Хаффман, Пол Спаркс, Хезер Линд, Майк Эппс, Чэнс Келли, Тарик Троттер, Аль Калдерон
    Описание: Когда жизнь Билли Уайта пошла под откос, он ударился в криминал. Парень попался на автомобильной краже и угодил в подростковую колонию, известную как Бернвилльский лагерь для мальчиков. В первом же день Билли испытал на своей шкуре все «перелести» местных порядков и деспотизм тюремных надзирателей, которые любой случайный взгляд принимают как личное оскорбление. Своенравному, свободолюбивому и обладающему живым умом молодому человеку, который так не похож на других заключенных, здесь явно придется тяжело. Но Билли не из тех, кто легко сдается. Он решает установить свои порядки и искоренить произвол тюремщиков. Революционные идеи Уайта находят как своих сторонников, так и ярых противников…
    Кинопоиск
    Sample
    Тип релиза: WEB-DL 1080p
    Контейнер: MKV
    Видео: MPEG4 AVC Video, H264, 16:9, 1916x1032, 23.976 fps, 4825 kbps
    Аудио: Russian (AC3, 2 ch, 192 kbps, 16 bits, 48.0 KHz) - MVO
    Аудио 2: English (AC3, 6 ch, 384 kbps, 16 bits, 48.0 KHz) - оригинал
    Формат субтитров: softsub (SRT)

    MediaInfo

    General
    Unique ID : 195570481170903573434932411081748830396 (0x9321812CF9CE6208820C2CA09AEED8BC)
    Complete name : E:\Stealing Cars 2015 WEB-DL 1080p.mkv
    Format : Matroska
    Format version : Version 4 / Version 2
    File size : 3.91 GiB
    Duration : 1h 41mn
    Overall bit rate : 5 510 Kbps
    Encoded date : UTC 2016-04-30 15:12:03
    Writing application : mkvmerge v6.1.0 ('Old Devil') built on Mar 2 2013 14:32:37
    Writing library : libebml v1.3.0 + libmatroska v1.4.0
    Video
    ID : 1
    Format : AVC
    Format/Info : Advanced Video Codec
    Format profile : High@L4.0
    Format settings, CABAC : Yes
    Format settings, ReFrames : 4 frames
    Codec ID : V_MPEG4/ISO/AVC
    Duration : 1h 41mn
    Bit rate : 4 825 Kbps
    Width : 1 916 pixels
    Height : 1 032 pixels
    Display aspect ratio : 1.85:1
    Frame rate mode : Constant
    Frame rate : 23.976 fps
    Color space : YUV
    Chroma subsampling : 4:2:0
    Bit depth : 8 bits
    Scan type : Progressive
    Bits/(Pixel*Frame) : 0.102
    Stream size : 3.42 GiB (88%)
    Language : English
    Default : Yes
    Forced : No
    Color primaries : BT.709
    Transfer characteristics : BT.709
    Matrix coefficients : BT.709
    Audio #1
    ID : 2
    Format : AC-3
    Format/Info : Audio Coding 3
    Mode extension : CM (complete main)
    Format settings, Endianness : Big
    Codec ID : A_AC3
    Duration : 1h 41mn
    Bit rate mode : Constant
    Bit rate : 192 Kbps
    Channel count : 2 channels
    Channel positions : Front: L R
    Sampling rate : 48.0 KHz
    Bit depth : 16 bits
    Compression mode : Lossy
    Stream size : 140 MiB (3%)
    Language : Russian
    Default : Yes
    Forced : No
    Audio #2
    ID : 3
    Format : AC-3
    Format/Info : Audio Coding 3
    Mode extension : CM (complete main)
    Format settings, Endianness : Big
    Codec ID : A_AC3
    Duration : 1h 41mn
    Bit rate mode : Constant
    Bit rate : 384 Kbps
    Channel count : 6 channels
    Channel positions : Front: L C R, Side: L R, LFE
    Sampling rate : 48.0 KHz
    Bit depth : 16 bits
    Compression mode : Lossy
    Stream size : 279 MiB (7%)
    Language : English
    Default : No
    Forced : No
    Text
    ID : 4
    Format : UTF-8
    Codec ID : S_TEXT/UTF8
    Codec ID/Info : UTF-8 Plain Text
    Language : English
    Default : No
    Forced : No

    Скриншоты

    Скачать .torrent

    Скачать торрент-файл бесплатно и на максимальной скорости!

    Как скачивать? · Что такое торрент? · Рейтинг и ограничения

    !ВНИМАНИЕ!
    Сайт не распространяет и не хранит электронные версии произведений, а занимается лишь лишь предоставлением доступа к создаваемому пользователями каталогу ссылок на торрент-файлы, которые содержат только списки хеш-сумм, убедительная просьба с жалобами обращаться напрямую к пользователю. Файлы для обмена на трекере предоставлены пользователями сайта, и администрация не несёт ответственности за их содержание. Просьба не заливать файлы, защищенные авторскими правами, а также файлы нелегального содержания!


    _________________
    [Профиль] [ЛС]
    Показать сообщения:    
    Ответить на тему

    Текущее время: Сегодня, в 16:14

    Часовой пояс: GMT + 2



    Вы не можете начинать темы
    Вы не можете отвечать на сообщения
    Вы не можете редактировать свои сообщения
    Вы не можете удалять свои сообщения
    Вы не можете голосовать в опросах
    Вы не можете прикреплять файлы к сообщениям
    Вы не можете скачивать файлы