BitTorrentTracker PerecTracker.org
BitTorrentTracker PerecTracker.org
    
Регистрация  ·  Вход
 
 · 
Забыли пароль?

  • Кукла / The Boy (Уильям Брент Белл / William Brent Bell) [2016, США, Китай, Канада, ужасы, триллер, BDRemux 1080p] Dub (iTunes) + Sub Eng + Original Eng

    Ответить на тему
     
    Автор Сообщение

    Light

    Создавать темы 03-Май-2016 08:10

           

    [Цитировать]

    -Кукла / The Boy-Страна: США, Китай, Канада
    Жанр: Ужасы, триллер
    Год выпуска: 2016
    Продолжительность: 01:37:47-Перевод: Профессиональный (дублированный) iTunes
    Cубтитры: английские
    Оригинальная аудиодорожка: английский-Режиссер: Уильям Брент Белл / William Brent Bell
    В ролях: Лорен Кохэн, Руперт Эванс, Джеймс Расселл, Джим Нортон (I), Диана Хардкэсл, Бен Робсон, Джетт Клине, Стефани Николь Лемелин-Описание: Благополучная английская семья нанимает для своего сына американскую няню. Приехав на новое место работы, няня обнаруживает, что ее подопечный — вовсе не настоящий мальчик, а кукла в человеческий рост, с которой обращаются, как с живым человеком. Но тревожные события, происходящие после того, как няня нарушает установленные строгие правила, заставляют её поверить в то, что кукла действительно может быть живой…-Сэмпл-Тип релиза: BDRemux 1080p
    Контейнер: MKV
    Видео: MPEG-4 AVC Video / 34798 kbps / 1080p / 23.976 fps / 16:9 / High Profile 4.1
    Аудио: Russian / Dolby Digital Audio / 5.1 / 48 kHz / 384 kbps | Дубляж
    Аудио 2: English / DTS-HD Master Audio / 5.1 / 48 kHz / 3187 kbps / 24-bit (DTS Core: 5.1 / 48 kHz / 1509 kbps / 24-bit)
    Формат субтитров: softsub (SRT)

    MI

    GeneralUnique ID : 212621152335528561484474402080268157882 (0x9FF5582B356920579BD9F1DAB0C703BA)Complete name : S:\На хранении\Кукла (2016. The Boy).mkvFormat : MatroskaFormat version : Version 4 / Version 2File size : 25.6 GiBDuration : 1h 37mnOverall bit rate mode : VariableOverall bit rate : 37.4 MbpsMovie name : Release for RuTrackerEncoded date : UTC 2016-04-28 18:43:12Writing application : mkvmerge v9.0.1 ('Obstacles') 64bitWriting library : libebml v1.3.3 + libmatroska v1.4.4Cover : YesAttachments : Cover.jpg
    VideoID : 1Format : AVCFormat/Info : Advanced Video CodecFormat profile : High@L4.1Format settings, CABAC : YesFormat settings, ReFrames : 4 framesCodec ID : V_MPEG4/ISO/AVCDuration : 1h 37mnBit rate mode : VariableBit rate : 33.8 MbpsMaximum bit rate : 37.0 MbpsWidth : 1 920 pixelsHeight : 1 080 pixelsDisplay aspect ratio : 16:9Frame rate mode : ConstantFrame rate : 23.976 (24000/1001) fpsColor space : YUVChroma subsampling : 4:2:0Bit depth : 8 bitsScan type : ProgressiveBits/(Pixel*Frame) : 0.681Stream size : 23.1 GiB (90%)Title : The.Boy.2016.BluRay.1080p.AVC.DTS-HD.MA5.1-LAZERSLanguage : EnglishDefault : YesForced : No
    Audio #1ID : 2Format : AC-3Format/Info : Audio Coding 3Mode extension : CM (complete main)Format settings, Endianness : BigCodec ID : A_AC3Duration : 1h 37mnBit rate mode : ConstantBit rate : 384 KbpsChannel(s) : 6 channelsChannel positions : Front: L C R, Side: L R, LFESampling rate : 48.0 KHzFrame rate : 31.250 fps (1536 spf)Compression mode : LossyStream size : 268 MiB (1%)Title : ДубляжLanguage : RussianDefault : YesForced : No
    Audio #2ID : 3Format : DTSFormat/Info : Digital Theater SystemsFormat profile : MA / CoreMode : 16Format settings, Endianness : BigCodec ID : A_DTSDuration : 1h 37mnBit rate mode : Variable / ConstantBit rate : 3 187 Kbps / 1 509 KbpsChannel(s) : 6 channelsChannel positions : Front: L C R, Side: L R, LFESampling rate : 48.0 KHzFrame rate : 93.750 fps (512 spf)Bit depth : 24 bitsCompression mode : Lossless / LossyStream size : 2.18 GiB (9%)Language : EnglishDefault : NoForced : No
    Text #1ID : 4Format : UTF-8Codec ID : S_TEXT/UTF8Codec ID/Info : UTF-8 Plain TextDuration : 1h 27mnBit rate : 42 bpsCount of elements : 1023Stream size : 27.5 KiB (0%)Language : EnglishDefault : NoForced : No
    Text #2ID : 5Format : UTF-8Codec ID : S_TEXT/UTF8Codec ID/Info : UTF-8 Plain TextDuration : 1h 27mnBit rate : 46 bpsCount of elements : 1170Stream size : 29.6 KiB (0%)Title : SDHLanguage : EnglishDefault : NoForced : No
    Menu00:00:00.000 : en:00:00:00.00000:05:49.015 : en:00:05:49.01500:09:52.258 : en:00:09:52.25800:14:04.927 : en:00:14:04.92700:18:13.384 : en:00:18:13.38400:23:54.975 : en:00:23:54.97500:27:56.466 : en:00:27:56.46600:32:18.270 : en:00:32:18.27000:38:13.833 : en:00:38:13.83300:41:39.372 : en:00:41:39.37200:45:05.828 : en:00:45:05.82800:51:30.671 : en:00:51:30.67100:54:20.757 : en:00:54:20.75701:01:26.099 : en:01:01:26.09901:05:35.890 : en:01:05:35.89001:09:25.828 : en:01:09:25.82801:15:54.550 : en:01:15:54.55001:19:52.955 : en:01:19:52.95501:27:04.678 : en:01:27:04.67801:33:20.595 : en:01:33:20.595
    Скриншоты

    Зеркало


    Скачать .torrent

    Скачать торрент-файл бесплатно и на максимальной скорости!

    Как скачивать? · Что такое торрент? · Рейтинг и ограничения

    !ВНИМАНИЕ!
    Сайт не распространяет и не хранит электронные версии произведений, а занимается лишь лишь предоставлением доступа к создаваемому пользователями каталогу ссылок на торрент-файлы, которые содержат только списки хеш-сумм, убедительная просьба с жалобами обращаться напрямую к пользователю. Файлы для обмена на трекере предоставлены пользователями сайта, и администрация не несёт ответственности за их содержание. Просьба не заливать файлы, защищенные авторскими правами, а также файлы нелегального содержания!


    _________________
    [Профиль] [ЛС]
    Показать сообщения:    
    Ответить на тему

    Текущее время: Сегодня, в 18:18

    Часовой пояс: GMT + 2



    Вы не можете начинать темы
    Вы не можете отвечать на сообщения
    Вы не можете редактировать свои сообщения
    Вы не можете удалять свои сообщения
    Вы не можете голосовать в опросах
    Вы не можете прикреплять файлы к сообщениям
    Вы не можете скачивать файлы