BitTorrentTracker PerecTracker.org
BitTorrentTracker PerecTracker.org
    
Регистрация  ·  Вход
 
 · 
Забыли пароль?

  • День отца / День отцов / Fathers\' Day (Айвен Райтман / Ivan Reitman) [1997, США, комедия, мелодрама, WEB-DL 720p] Dub + MVO + AVO + VO + Sub Eng + Original Eng

    Ответить на тему
     
    Автор Сообщение

    Light

    Создавать темы 03-Май-2016 08:10

           

    [Цитировать]

    День отца / День отцов / Fathers' Day
    -Страна: США
    Жанр: комедия, мелодрама
    Год выпуска: 1997
    Продолжительность: 01:43:38-Перевод 1: Профессиональный (дублированный) Варус Видео
    Перевод 2: Профессиональный (многоголосый, закадровый) ТВ3
    Перевод 3: Одноголосый закадровый Белов
    Перевод 4: Авторский (одноголосый закадровый) Визгунов
    Cубтитры: английские
    Оригинальная аудиодорожка: английский-Режиссер: Айвен Райтман / Ivan Reitman-В ролях: Робин Уильямс, Билли Кристал, Настасья Кински, Брюс Гринвуд, Джулия Луис-Дрейфус, Луис Ломбарди, Хэйли Джонсон, Патти Д'Арбанвилль, Джаред Харрис, Чарли Хофхаймер, Чарльз Рокет и др., а также камео Мэла Гибсона-Описание:
    Поссорившись со своим отчимом, а заодно и с законом, семнадцатилетний Скотт убегает из дома. Когда отчим отказывается искать его, мать Скотта, миссис Эндрюс, решает прибегнуть к хитрости. Она отправляется к своему бывшему любовнику, Джеку Лоуренсу, ныне преуспевающему адвокату, и сообщает ему о том, что Скотт - его ребенок. Видя, что Джек в нерешительности и не торопится на поиски нерадивого отпрыска, миссис Эндрюс разыскивает еще одного старого приятеля - писателя-драматурга Дэйла Патли - и говорит ему то же самое. В итоге оба новоиспеченных папаши отправляются на поиски "общего" сына...-Сэмпл: Скачать-Тип релиза: WEB-DL 720p
    Контейнер: MKV-Видео: 1280x530 (2.40:1); 3 791 Kbps; 23.976 fps; 0.233 bpp
    Аудио 1: Russian; AC3; 48.0 KHz; 2ch; 192 Kbps Dub Варус Видео
    Аудио 2: Russian; AC3; 48.0 KHz; 2ch; 192 Kbps MVO ТВ3
    Аудио 3: Russian; AC3; 48.0 KHz; 6ch; 384 Kbps VO Белов
    Аудио 4: Russian; AC3; 48.0 KHz; 2ch; 192 Kbps AVO Визгунов
    Аудио 5: English; AC3; 48.0 KHz; 6ch; 384 Kbps

    MediaInfo

    Format : Matroska
    Format version : Version 4 / Version 2
    File size : 3.63 GiB
    Duration : 1h 39mn
    Overall bit rate : 5 239 Kbps
    Encoded date : UTC 2016-04-29 05:51:52
    Writing application : mkvmerge v8.3.0 ('Over the Horizon') 64bit
    Writing library : libebml v1.3.1 + libmatroska v1.4.2
    Attachements : poster.jpg
    DURATION : 01:39:08.672000000
    NUMBER_OF_FRAMES : 185896
    NUMBER_OF_BYTES : 285536256
    _STATISTICS_WRITING_APP : mkvmerge v8.3.0 ('Over the Horizon') 64bit
    _STATISTICS_WRITING_DATE_UT : 2016-04-29 05:51:52
    _STATISTICS_TAGS : BPS DURATION NUMBER_OF_FRAMES NUMBER_OF_BYTES
    Video
    ID : 1
    Format : AVC
    Format/Info : Advanced Video Codec
    Format profile : Main@L3.1
    Format settings, CABAC : No
    Format settings, ReFrames : 2 frames
    Format settings, GOP : N=1
    Codec ID : V_MPEG4/ISO/AVC
    Duration : 1h 39mn
    Bit rate : 3 791 Kbps
    Width : 1 280 pixels
    Height : 530 pixels
    Display aspect ratio : 2.40:1
    Frame rate mode : Constant
    Frame rate : 23.976 fps
    Color space : YUV
    Chroma subsampling : 4:2:0
    Bit depth : 8 bits
    Scan type : Progressive
    Bits/(Pixel*Frame) : 0.233
    Stream size : 2.63 GiB (72%)
    Language : English
    Default : Yes
    Forced : No
    Color range : Limited
    Color primaries : BT.709
    Transfer characteristics : BT.709
    Matrix coefficients : BT.709
    Audio #1
    ID : 2
    Format : AC-3
    Format/Info : Audio Coding 3
    Mode extension : CM (complete main)
    Format settings, Endianness : Big
    Codec ID : A_AC3
    Duration : 1h 39mn
    Bit rate mode : Constant
    Bit rate : 192 Kbps
    Channel(s) : 2 channels
    Channel positions : Front: L R
    Sampling rate : 48.0 KHz
    Compression mode : Lossy
    Stream size : 136 MiB (4%)
    Title : Dub Варус Видео
    Language : Russian
    Default : Yes
    Forced : No
    Audio #2
    ID : 3
    Format : AC-3
    Format/Info : Audio Coding 3
    Mode extension : CM (complete main)
    Format settings, Endianness : Big
    Codec ID : A_AC3
    Duration : 1h 39mn
    Bit rate mode : Constant
    Bit rate : 192 Kbps
    Channel(s) : 2 channels
    Channel positions : Front: L R
    Sampling rate : 48.0 KHz
    Compression mode : Lossy
    Stream size : 136 MiB (4%)
    Title : MVO ТВ3
    Language : Russian
    Default : No
    Forced : No
    Audio #3
    ID : 4
    Format : AC-3
    Format/Info : Audio Coding 3
    Mode extension : CM (complete main)
    Format settings, Endianness : Big
    Codec ID : A_AC3
    Duration : 1h 39mn
    Bit rate mode : Constant
    Bit rate : 384 Kbps
    Channel(s) : 6 channels
    Channel positions : Front: L C R, Side: L R, LFE
    Sampling rate : 48.0 KHz
    Compression mode : Lossy
    Stream size : 273 MiB (7%)
    Title : AVO Белов
    Language : Russian
    Default : No
    Forced : No
    Audio #4
    ID : 5
    Format : AC-3
    Format/Info : Audio Coding 3
    Mode extension : CM (complete main)
    Format settings, Endianness : Big
    Codec ID : A_AC3
    Duration : 1h 39mn
    Bit rate mode : Constant
    Bit rate : 192 Kbps
    Channel(s) : 2 channels
    Channel positions : Front: L R
    Sampling rate : 48.0 KHz
    Compression mode : Lossy
    Stream size : 136 MiB (4%)
    Title : AVO Визгунов
    Language : Russian
    Default : No
    Forced : No
    Audio #5
    ID : 6
    Format : AC-3
    Format/Info : Audio Coding 3
    Mode extension : CM (complete main)
    Format settings, Endianness : Big
    Codec ID : A_AC3
    Duration : 1h 39mn
    Bit rate mode : Constant
    Bit rate : 384 Kbps
    Channel(s) : 6 channels
    Channel positions : Front: L C R, Side: L R, LFE
    Sampling rate : 48.0 KHz
    Compression mode : Lossy
    Stream size : 273 MiB (7%)
    Language : English
    Default : No
    Forced : No
    Text
    ID : 7
    Format : UTF-8
    Codec ID : S_TEXT/UTF8
    Codec ID/Info : UTF-8 Plain Text
    Language : English
    Default : No
    Forced : No

    Скриншоты

    Скачать .torrent

    Скачать торрент-файл бесплатно и на максимальной скорости!

    Как скачивать? · Что такое торрент? · Рейтинг и ограничения

    !ВНИМАНИЕ!
    Сайт не распространяет и не хранит электронные версии произведений, а занимается лишь лишь предоставлением доступа к создаваемому пользователями каталогу ссылок на торрент-файлы, которые содержат только списки хеш-сумм, убедительная просьба с жалобами обращаться напрямую к пользователю. Файлы для обмена на трекере предоставлены пользователями сайта, и администрация не несёт ответственности за их содержание. Просьба не заливать файлы, защищенные авторскими правами, а также файлы нелегального содержания!


    _________________
    [Профиль] [ЛС]
    Показать сообщения:    
    Ответить на тему

    Текущее время: Сегодня, в 12:23

    Часовой пояс: GMT + 2



    Вы не можете начинать темы
    Вы не можете отвечать на сообщения
    Вы не можете редактировать свои сообщения
    Вы не можете удалять свои сообщения
    Вы не можете голосовать в опросах
    Вы не можете прикреплять файлы к сообщениям
    Вы не можете скачивать файлы