BitTorrentTracker PerecTracker.org
BitTorrentTracker PerecTracker.org
    
Регистрация  ·  Вход
 
 · 
Забыли пароль?

  • Кукла / The Boy (Уильям Брент Белл / William Brent Bell) [2016, США, Китай, Канада, ужасы, триллер, BDRip 720p] Dub (iTunes) + Sub Eng + Original Eng

    Ответить на тему
     
    Автор Сообщение

    Light

    Создавать темы 03-Май-2016 08:10

           

    [Цитировать]

    -Кукла / The Boy-Страна: США, Китай, Канада
    Жанр: Ужасы, триллер
    Год выпуска: 2016
    Продолжительность: 01:37:47-Перевод: Профессиональный (дублированный) iTunes
    Cубтитры: английские
    Оригинальная аудиодорожка: английский-Режиссер: Уильям Брент Белл / William Brent Bell
    В ролях: Лорен Кохэн, Руперт Эванс, Джеймс Расселл, Джим Нортон (I), Диана Хардкэсл, Бен Робсон, Джетт Клине, Стефани Николь Лемелин-Описание: Благополучная английская семья нанимает для своего сына американскую няню. Приехав на новое место работы, няня обнаруживает, что ее подопечный — вовсе не настоящий мальчик, а кукла в человеческий рост, с которой обращаются, как с живым человеком. Но тревожные события, происходящие после того, как няня нарушает установленные строгие правила, заставляют её поверить в то, что кукла действительно может быть живой…-Сэмпл-Тип релиза: BDRip 720p
    Контейнер: MKV
    Видео: MPEG-4 AVC Video / 6160 kbps / 1280 x 534p / 23.976 fps / High Profile 4.1
    Аудио: Russian / Dolby Digital Audio / 5.1 / 48 kHz / 384 kbps | Дубляж
    Аудио 2: English / DTS Audio / 5.1 / 48 kHz / 1509 kbps
    Формат субтитров: softsub (SRT)

    Видеоряд от VietHD

    MOVIE iNFOGENRE.........: Horror, Mystery, ThrillerIMDB RATING...: 6,0/10LINK..........:
    RELEASE iNFORELEASE NAME..: The.Boy.2016.720p.BluRay.DTS.x264-VietHDENCODED DATE..: UTC 2016-04-29 04:58:35RELEASE SIZE..: 5.24 GiBRUNTIME.......: 1h 37mnVIDEO CODEC...: x264, High@L4.1FRAMERATE.....: 23.976 (24000/1001) fpsBITRATE.......: 6 160 KbpsRESOLUTION....: 1280 x 534AUDIO.........: English DTS 6 channels@1 509 KbpsSUBTITLES.....: Spanish, Vietnamese, English, English SDH, French.CHAPTERS......: YesSOURCE........: The Boy 2016 1080p Blu-ray AVC DTS-HD MA 5.1-LAZERSENCODER.......: Red
    x264 iNFOx264 [info]: frame I:978 Avg QP:13.57 size:119252x264 [info]: frame P:27708 Avg QP:15.28 size: 52407x264 [info]: frame B:112002 Avg QP:16.76 size: 26337x264 [info]: consecutive B-frames: 1.5% 2.2% 6.0% 11.9% 14.1% 48.3% 7.1% 1.7% 2.2% 1.4% 2.1% 1.5%
    encoded 140688 frames, 8.45 fps, 6160.43 kb/s, duration 4:37:26.38Source_________________________________________________________VietHD




    MI

    GeneralUnique ID : 190810991523354211017111911933196605214 (0x8F8CDC37FCDAB5219A3069AC65D3971E)Complete name : S:\На хранении\Кукла (2016. The Boy) 720p.mkv.mkvFormat : MatroskaFormat version : Version 4 / Version 2File size : 5.50 GiBDuration : 1h 37mnOverall bit rate : 8 056 KbpsMovie name : Release for RuTrackerEncoded date : UTC 2016-04-29 08:37:20Writing application : mkvmerge v9.0.1 ('Obstacles') 64bitWriting library : libebml v1.3.3 + libmatroska v1.4.4Cover : YesAttachments : Cover.jpg
    VideoID : 1Format : AVCFormat/Info : Advanced Video CodecFormat profile : High@L4.1Format settings, CABAC : YesFormat settings, ReFrames : 12 framesCodec ID : V_MPEG4/ISO/AVCDuration : 1h 37mnBit rate : 6 160 KbpsWidth : 1 280 pixelsHeight : 534 pixelsDisplay aspect ratio : 2.40:1Frame rate mode : ConstantFrame rate : 23.976 (24000/1001) fpsColor space : YUVChroma subsampling : 4:2:0Bit depth : 8 bitsScan type : ProgressiveBits/(Pixel*Frame) : 0.376Stream size : 4.21 GiB (76%)Title : The.Boy.2016.720p.BluRay.DTS.x264-VietHDWriting library : x264 core 148 r2665kMod a01e339Encoding settings : cabac=1 / ref=12 / deblock=1:-3:-3 / analyse=0x3:0x133 / me=umh / subme=10 / psy=1 / fade_compensate=0.00 / psy_rd=1.05:0.00 / mixed_ref=1 / me_range=24 / chroma_me=1 / trellis=2 / 8x8dct=1 / cqm=0 / deadzone=21,11 / fast_pskip=0 / chroma_qp_offset=-2 / threads=12 / lookahead_threads=3 / sliced_threads=0 / nr=0 / decimate=0 / interlaced=0 / bluray_compat=0 / constrained_intra=0 / fgo=0 / bframes=11 / b_pyramid=2 / b_adapt=2 / b_bias=0 / direct=3 / weightb=1 / open_gop=0 / weightp=2 / keyint=250 / keyint_min=23 / scenecut=40 / intra_refresh=0 / rc_lookahead=60 / rc=crf / mbtree=0 / crf=16.8000 / qcomp=0.65 / qpmin=0 / qpmax=69 / qpstep=4 / vbv_maxrate=62500 / vbv_bufsize=78125 / crf_max=0.0 / nal_hrd=none / filler=0 / ip_ratio=1.30 / pb_ratio=1.20 / aq=3:0.75Language : EnglishDefault : YesForced : NoColor range : LimitedMatrix coefficients : BT.709
    Audio #1ID : 2Format : AC-3Format/Info : Audio Coding 3Mode extension : CM (complete main)Format settings, Endianness : BigCodec ID : A_AC3Duration : 1h 37mnBit rate mode : ConstantBit rate : 384 KbpsChannel(s) : 6 channelsChannel positions : Front: L C R, Side: L R, LFESampling rate : 48.0 KHzFrame rate : 31.250 fps (1536 spf)Compression mode : LossyStream size : 268 MiB (5%)Title : ДубляжLanguage : RussianDefault : YesForced : No
    Audio #2ID : 3Format : DTSFormat/Info : Digital Theater SystemsMode : 16Format settings, Endianness : BigCodec ID : A_DTSDuration : 1h 37mnBit rate mode : ConstantBit rate : 1 509 KbpsChannel(s) : 6 channelsChannel positions : Front: L C R, Side: L R, LFESampling rate : 48.0 KHzFrame rate : 93.750 fps (512 spf)Bit depth : 24 bitsCompression mode : LossyStream size : 1.03 GiB (19%)Language : EnglishDefault : NoForced : No
    Text #1ID : 4Format : UTF-8Codec ID : S_TEXT/UTF8Codec ID/Info : UTF-8 Plain TextDuration : 1h 27mnBit rate : 42 bpsCount of elements : 1023Stream size : 27.5 KiB (0%)Language : EnglishDefault : NoForced : No
    Text #2ID : 5Format : UTF-8Codec ID : S_TEXT/UTF8Codec ID/Info : UTF-8 Plain TextDuration : 1h 27mnBit rate : 46 bpsCount of elements : 1170Stream size : 29.6 KiB (0%)Title : SDHLanguage : EnglishDefault : NoForced : No
    Menu00:00:00.000 : en:00:00:00.00000:05:49.015 : en:00:05:49.01500:09:52.258 : en:00:09:52.25800:14:04.927 : en:00:14:04.92700:18:13.384 : en:00:18:13.38400:23:54.975 : en:00:23:54.97500:27:56.466 : en:00:27:56.46600:32:18.270 : en:00:32:18.27000:38:13.833 : en:00:38:13.83300:41:39.372 : en:00:41:39.37200:45:05.828 : en:00:45:05.82800:51:30.671 : en:00:51:30.67100:54:20.757 : en:00:54:20.75701:01:26.099 : en:01:01:26.09901:05:35.890 : en:01:05:35.89001:09:25.828 : en:01:09:25.82801:15:54.550 : en:01:15:54.55001:19:52.955 : en:01:19:52.95501:27:04.678 : en:01:27:04.67801:33:20.595 : en:01:33:20.595
    Скриншоты

    Зеркало


    Скачать .torrent

    Скачать торрент-файл бесплатно и на максимальной скорости!

    Как скачивать? · Что такое торрент? · Рейтинг и ограничения

    !ВНИМАНИЕ!
    Сайт не распространяет и не хранит электронные версии произведений, а занимается лишь лишь предоставлением доступа к создаваемому пользователями каталогу ссылок на торрент-файлы, которые содержат только списки хеш-сумм, убедительная просьба с жалобами обращаться напрямую к пользователю. Файлы для обмена на трекере предоставлены пользователями сайта, и администрация не несёт ответственности за их содержание. Просьба не заливать файлы, защищенные авторскими правами, а также файлы нелегального содержания!


    _________________
    [Профиль] [ЛС]
    Показать сообщения:    
    Ответить на тему

    Текущее время: Сегодня, в 22:27

    Часовой пояс: GMT + 2



    Вы не можете начинать темы
    Вы не можете отвечать на сообщения
    Вы не можете редактировать свои сообщения
    Вы не можете удалять свои сообщения
    Вы не можете голосовать в опросах
    Вы не можете прикреплять файлы к сообщениям
    Вы не можете скачивать файлы