BitTorrentTracker PerecTracker.org
BitTorrentTracker PerecTracker.org
    
Регистрация  ·  Вход
 
 · 
Забыли пароль?

  • Кукла / The Boy (Уильям Брент Белл / William Brent Bell) [2016, США, Китай, Канада, ужасы, триллер, BDRip 1080p] Dub (iTunes) + Sub Eng + Original Eng

    Ответить на тему
     
    Автор Сообщение

    Light

    Создавать темы 03-Май-2016 08:10

           

    [Цитировать]

    -Кукла / The Boy-Страна: США, Китай, Канада
    Жанр: Ужасы, триллер
    Год выпуска: 2016
    Продолжительность: 01:37:47-Перевод: Профессиональный (дублированный) iTunes
    Cубтитры: английские
    Оригинальная аудиодорожка: английский-Режиссер: Уильям Брент Белл / William Brent Bell
    В ролях: Лорен Кохэн, Руперт Эванс, Джеймс Расселл, Джим Нортон (I), Диана Хардкэсл, Бен Робсон, Джетт Клине, Стефани Николь Лемелин-Описание: Благополучная английская семья нанимает для своего сына американскую няню. Приехав на новое место работы, няня обнаруживает, что ее подопечный — вовсе не настоящий мальчик, а кукла в человеческий рост, с которой обращаются, как с живым человеком. Но тревожные события, происходящие после того, как няня нарушает установленные строгие правила, заставляют её поверить в то, что кукла действительно может быть живой…-Сэмпл-Тип релиза: BDRip 1080p
    Контейнер: MKV
    Видео: MPEG-4 AVC Video / 16400 kbps / 1920х800p / 23.976 fps / High Profile 4.1 (The.Boy.2016.1080p.BluRay.DTS.x264-HDMaNiAcS)
    Аудио: Russian / Dolby Digital Audio / 5.1 / 48 kHz / 384 kbps | Дубляж
    Аудио 2: English / DTS Audio / 5.1 / 48 kHz / 1509 kbps
    Формат субтитров: softsub (SRT)

    MI

    GeneralUnique ID : 202855292244076899180295154083217138637 (0x989C82177F1EF933A2474E119659E3CD)Complete name : S:\На хранении\Кукла (2016. The Boy) 1080p.mkv.mkvFormat : MatroskaFormat version : Version 4 / Version 2File size : 12.5 GiBDuration : 1h 37mnOverall bit rate : 18.3 MbpsMovie name : Release for RuTrackerEncoded date : UTC 2016-04-29 08:15:57Writing application : mkvmerge v9.0.1 ('Obstacles') 64bitWriting library : libebml v1.3.3 + libmatroska v1.4.4Cover : YesAttachments : Cover.jpg
    VideoID : 1Format : AVCFormat/Info : Advanced Video CodecFormat profile : High@L4.1Format settings, CABAC : YesFormat settings, ReFrames : 5 framesCodec ID : V_MPEG4/ISO/AVCDuration : 1h 37mnBit rate : 16.4 MbpsWidth : 1 920 pixelsHeight : 800 pixelsDisplay aspect ratio : 2.40:1Frame rate mode : ConstantFrame rate : 23.976 (24000/1001) fpsColor space : YUVChroma subsampling : 4:2:0Bit depth : 8 bitsScan type : ProgressiveBits/(Pixel*Frame) : 0.446Stream size : 11.2 GiB (90%)Title : The.Boy.2016.1080p.BluRay.DTS.x264-HDMaNiAcSWriting library : x264 core 146 r2538 121396cEncoding settings : cabac=1 / ref=5 / deblock=1:-3:-3 / analyse=0x3:0x133 / me=tesa / subme=11 / psy=1 / psy_rd=1.04:0.00 / mixed_ref=1 / me_range=32 / chroma_me=1 / trellis=2 / 8x8dct=1 / cqm=0 / deadzone=21,11 / fast_pskip=0 / chroma_qp_offset=-2 / threads=48 / lookahead_threads=6 / sliced_threads=0 / nr=0 / decimate=0 / interlaced=0 / bluray_compat=0 / constrained_intra=0 / bframes=12 / b_pyramid=2 / b_adapt=2 / b_bias=0 / direct=3 / weightb=1 / open_gop=0 / weightp=2 / keyint=240 / keyint_min=23 / scenecut=40 / intra_refresh=0 / rc_lookahead=150 / rc=crf / mbtree=0 / crf=16.9 / qcomp=0.60 / qpmin=0 / qpmax=69 / qpstep=4 / vbv_maxrate=62500 / vbv_bufsize=78125 / crf_max=0.0 / nal_hrd=none / filler=0 / ip_ratio=1.40 / pb_ratio=1.30 / aq=1:0.80Language : EnglishDefault : YesForced : No
    Audio #1ID : 2Format : AC-3Format/Info : Audio Coding 3Mode extension : CM (complete main)Format settings, Endianness : BigCodec ID : A_AC3Duration : 1h 37mnBit rate mode : ConstantBit rate : 384 KbpsChannel(s) : 6 channelsChannel positions : Front: L C R, Side: L R, LFESampling rate : 48.0 KHzFrame rate : 31.250 fps (1536 spf)Compression mode : LossyStream size : 268 MiB (2%)Title : ДубляжLanguage : RussianDefault : YesForced : No
    Audio #2ID : 3Format : DTSFormat/Info : Digital Theater SystemsMode : 16Format settings, Endianness : BigCodec ID : A_DTSDuration : 1h 37mnBit rate mode : ConstantBit rate : 1 509 KbpsChannel(s) : 6 channelsChannel positions : Front: L C R, Side: L R, LFESampling rate : 48.0 KHzFrame rate : 93.750 fps (512 spf)Bit depth : 24 bitsCompression mode : LossyStream size : 1.03 GiB (8%)Language : EnglishDefault : NoForced : No
    Text #1ID : 4Format : UTF-8Codec ID : S_TEXT/UTF8Codec ID/Info : UTF-8 Plain TextDuration : 1h 27mnBit rate : 42 bpsCount of elements : 1023Stream size : 27.5 KiB (0%)Language : EnglishDefault : NoForced : No
    Text #2ID : 5Format : UTF-8Codec ID : S_TEXT/UTF8Codec ID/Info : UTF-8 Plain TextDuration : 1h 27mnBit rate : 46 bpsCount of elements : 1170Stream size : 29.6 KiB (0%)Title : SDHLanguage : EnglishDefault : NoForced : No
    Menu00:00:00.000 : en:Chapter 100:05:49.015 : en:Chapter 200:09:52.258 : en:Chapter 300:14:04.927 : en:Chapter 400:18:13.384 : en:Chapter 500:23:54.975 : en:Chapter 600:27:56.466 : en:Chapter 700:32:18.270 : en:Chapter 800:38:13.833 : en:Chapter 900:41:39.372 : en:Chapter 1000:45:05.828 : en:Chapter 1100:51:30.671 : en:Chapter 1200:54:20.757 : en:Chapter 1301:01:26.099 : en:Chapter 1401:05:35.890 : en:Chapter 1501:09:25.828 : en:Chapter 1601:15:54.550 : en:Chapter 1701:19:52.955 : en:Chapter 1801:27:04.678 : en:Chapter 1901:33:20.595 : en:Chapter 20
    Скриншоты

    Зеркало


    Скачать .torrent

    Скачать торрент-файл бесплатно и на максимальной скорости!

    Как скачивать? · Что такое торрент? · Рейтинг и ограничения

    !ВНИМАНИЕ!
    Сайт не распространяет и не хранит электронные версии произведений, а занимается лишь лишь предоставлением доступа к создаваемому пользователями каталогу ссылок на торрент-файлы, которые содержат только списки хеш-сумм, убедительная просьба с жалобами обращаться напрямую к пользователю. Файлы для обмена на трекере предоставлены пользователями сайта, и администрация не несёт ответственности за их содержание. Просьба не заливать файлы, защищенные авторскими правами, а также файлы нелегального содержания!


    _________________
    [Профиль] [ЛС]
    Показать сообщения:    
    Ответить на тему

    Текущее время: Сегодня, в 23:21

    Часовой пояс: GMT + 2



    Вы не можете начинать темы
    Вы не можете отвечать на сообщения
    Вы не можете редактировать свои сообщения
    Вы не можете удалять свои сообщения
    Вы не можете голосовать в опросах
    Вы не можете прикреплять файлы к сообщениям
    Вы не можете скачивать файлы