BitTorrentTracker PerecTracker.org
BitTorrentTracker PerecTracker.org
    
Регистрация  ·  Вход
 
 · 
Забыли пароль?

  • [ATV3] Три девятки / Triple 9 (Джон Хиллкоут / John Hillcoat ) [2016, США, Криминал, драма, триллер, WEB-DL, HD (1080p)] DUB + Original

    Ответить на тему
     
    Автор Сообщение

    rechyn

    Создавать темы 03-Май-2016 03:57

           

    [Цитировать]

    Три девятки / Triple 9
    «Законы улицы не делятся на черные и белые»
    6.112 / 10 6.40 / 10
    -Год выпуска: 2016
    Страна: США
    Жанр: Криминал, драма, триллер
    Продолжительность: 01:55:12
    Перевод: Дублированный (iTunes)
    Оригинальная аудиодорожка: Есть
    Cубтитры: Нет
    Режиссёр: Джон Хиллкоут
    Сценарий: Мэтт Кук
    Продюсер: Марк Бутан, Бард Доррос, Энтони Катагас
    Оператор: Николас Каракатсанис
    Композитор: Бобби Крлик, Аттикус Росс, Лео Росс
    Художник: Тим Граймс, Марго Уилсон, Жаклин Джейкобсон Скарфо
    Монтаж: Дилан Тиченор
    В ролях: Чиветель Эджиофор, Кейси Аффлек, Энтони Маки, Вуди Харрельсон, Кейт Уинслет, Аарон Пол, Клифтон Коллинз мл., Норман Ридус, Галь Гадот, Тереза Палмер
    Бюджет: $28 000 000
    Сборы в США: $12 639 297
    Сборы в России: $525 530
    Мировая премьера: 19 февраля 2016
    Премьера (РФ): 3 марта 2016, «Парадиз»
    Релиз на DVD: 13 июня 2016, «Парадиз Медиа»
    Релиз на Blu-Ray: 13 июня 2016, «Парадиз Медиа»
    Описание: Сюжет разворачивается вокруг компании коррумпированных копов, решившихся на крупное ограбление. Но ради того, чтобы выйти сухими из воды, им необходимо убить кого-то из своих.
    Название «999» — соответственно — восходит к коду опасности американских полицейских.-Качество исходника: WEB-DL 1080p (HDClub)
    Качество: WEB-DL
    Тип: HD (1080p)
    Контейнер: M4V
    Видео: H.264, 1920x804, 2.40:1, 4 467 Kbps, 24.000 fps
    Аудио 1: Русский/Дублированный (iTunes), AAC / 2.0 / 157 Kbps / 48.0 KHz
    Аудио 2: Английский/Оригинальная дорожка , AAC / 2.0 / 155 Kbps / 48.0 KHz
    Аудио 3: Русский/Дублированный (iTunes), AC-3 / 5.1 / 384 Kbps / 48.0 KHz
    -

    iTunes Meta Tags

    Sort Name: Triple 9
    XID: Apple:vendor_id:2016-565861
    contentID: 1082442565
    Copyright: © 2015 999 Holdings, LLC
    Screenwriters: Мэтт Кук
    Producers: Марк Бутан, Бард Доррос, Энтони Катагас
    Director: Джон Хиллкоут
    Cast: Аарон Пол, Кейт Уинслет, Вуди Харрельсон, Кейси Аффлек, Энтони Маки, Чиветель Эджиофор, Галь Гадот, Норман Ридус, Тереза Палмер, Майкл Кеннет Уильямс
    Studio: Entertainment One
    Rating: 125
    Long Description: Группа коррумпированных копов задумывает крупное ограбление. Они понимают: ради алиби им будет нужно убрать кого-то из своих...
    Description: Группа коррумпированных копов задумывает крупное ограбление. Они понимают: ради алиби им будет нужно убрать кого-то из своих...
    Release Date: 2016-02-19T08:00:00Z
    Genre: Thriller
    Artist: John Hillcoat
    Name: Triple 9

    MediaInfo

    General
    Complete name : /Users/imac/HandBrake/Triple.9.WEB-DL.1080p.m4v
    Format : MPEG-4
    Codec ID : M4V  (M4V /M4A /mp42/isom)
    File size : 4.16 GiB
    Duration : 1h 55mn
    Overall bit rate mode : Variable
    Overall bit rate : 5 173 Kbps
    Movie name : Triple 9
    Performer : John Hillcoat
    Director : Джон Хиллкоут
    Actor : Аарон Пол / Кейт Уинслет / Вуди Харрельсон / Кейси Аффлек / Энтони Маки / Чиветель Эджиофор / Галь Гадот / Норман Ридус / Тереза Палмер / Майкл Кеннет Уильямс
    Screenplay by : Мэтт Кук
    Producer : Марк Бутан / Бард Доррос / Энтони Катагас
    Production studio : Entertainment One
    Genre : Thriller
    ContentType : Short Film
    Description : Группа коррумпированных копов задумывает крупное ограбление. Они понимают: ради алиби им будет нужно убрать кого-то из своих...
    Recorded date : UTC 2016-02-19 08:00:00
    Encoded date : UTC 2016-05-02 21:18:21
    Tagged date : UTC 2016-05-02 21:19:17
    Copyright : © 2015 999 Holdings, LLC
    Cover : Yes
    Rating : None
    Title/Sort : Triple 9
    LongDescription : Группа коррумпированных копов задумывает крупное ограбление. Они понимают: ради алиби им будет нужно убрать кого-то из своих...
    AppleStoreCatalogID : 1082442565
    Vendor : Apple:vendor_id:2016-565861
    ContentRating : uk-movie|15|350|
    Video #1
    ID : 1
    Format : AVC
    Format/Info : Advanced Video Codec
    Format profile : High@L4
    Format settings, CABAC : Yes
    Format settings, ReFrames : 5 frames
    Format settings, GOP : N=1
    Codec ID : avc1
    Codec ID/Info : Advanced Video Coding
    Duration : 1h 55mn
    Bit rate : 4 467 Kbps
    Width : 1 920 pixels
    Height : 804 pixels
    Display aspect ratio : 2.40:1
    Frame rate mode : Variable
    Frame rate : 24.000 fps
    Minimum frame rate : 23.810 fps
    Maximum frame rate : 24.390 fps
    Color space : YUV
    Chroma subsampling : 4:2:0
    Bit depth : 8 bits
    Scan type : Progressive
    Bits/(Pixel*Frame) : 0.121
    Stream size : 3.59 GiB (86%)
    Title : Main Program
    Language : English
    Encoded date : UTC 2016-05-02 21:18:21
    Tagged date : UTC 2016-05-02 21:18:29
    Color range : Limited
    Color primaries : BT.709
    Transfer characteristics : BT.709
    Matrix coefficients : BT.709
    Menus : 5,6
    Video #2
    ID : 6
    Format : JPEG
    Codec ID : jpeg
    Duration : 1h 55mn
    Bit rate mode : Variable
    Bit rate : 537 bps
    Width : 640 pixels
    Height : 268 pixels
    Display aspect ratio : 2.40:1
    Frame rate mode : Variable
    Frame rate : 0.002 fps
    Minimum frame rate : 0.001 fps
    Maximum frame rate : 0.003 fps
    Color space : YUV
    Chroma subsampling : 4:2:0
    Bit depth : 8 bits
    Compression mode : Lossy
    Bits/(Pixel*Frame) : 1.565
    Stream size : 524 KiB (0%)
    Title : Chapter Images
    Language : English
    Default : No
    Encoded date : UTC 2016-05-02 21:18:37
    Tagged date : UTC 2016-05-02 21:18:37
    Menu For : 1
    Audio #1
    ID : 2
    Format : AAC
    Format/Info : Advanced Audio Codec
    Format profile : LC
    Codec ID : 40
    Duration : 1h 55mn
    Bit rate mode : Variable
    Bit rate : 157 Kbps
    Maximum bit rate : 239 Kbps
    Channel(s) : 2 channels
    Channel positions : Front: L R
    Sampling rate : 48.0 KHz
    Frame rate : 46.875 fps (1024 spf)
    Compression mode : Lossy
    Stream size : 129 MiB (3%)
    Title : Russian Stereo
    Language : Russian
    Default : Yes
    Alternate group : 1
    Encoded date : UTC 2016-05-02 21:18:21
    Tagged date : UTC 2016-05-02 21:18:30
    Fallback From : 4
    Audio #2
    ID : 3
    Format : AAC
    Format/Info : Advanced Audio Codec
    Format profile : LC
    Codec ID : 40
    Duration : 1h 55mn
    Bit rate mode : Variable
    Bit rate : 155 Kbps
    Maximum bit rate : 235 Kbps
    Channel(s) : 2 channels
    Channel positions : Front: L R
    Sampling rate : 48.0 KHz
    Frame rate : 46.875 fps (1024 spf)
    Compression mode : Lossy
    Stream size : 128 MiB (3%)
    Title : English Stereo
    Language : English
    Default : No
    Alternate group : 1
    Encoded date : UTC 2016-05-02 21:18:21
    Tagged date : UTC 2016-05-02 21:18:30
    Audio #3
    ID : 4
    Format : AC-3
    Format/Info : Audio Coding 3
    Mode extension : CM (complete main)
    Format settings, Endianness : Big
    Codec ID : ac-3
    Duration : 1h 55mn
    Bit rate mode : Constant
    Bit rate : 384 Kbps
    Channel(s) : 6 channels
    Channel positions : Front: L C R, Side: L R, LFE
    Sampling rate : 48.0 KHz
    Frame rate : 31.250 fps (1536 spf)
    Bit depth : 16 bits
    Compression mode : Lossy
    Stream size : 316 MiB (7%)
    Title : Russian DD 5.1
    Language : Russian
    Default : Inherited From: 2
    Alternate group : 1
    Encoded date : UTC 2016-05-02 21:18:21
    Tagged date : UTC 2016-05-02 21:18:29
    Fallback To : 2
    Menu #1
    00:00:00.000 : 1
    00:09:06.375 : 2
    00:15:30.125 : 3
    00:20:40.083 : 4
    00:27:24.499 : 5
    00:34:00.915 : 6
    00:40:23.873 : 7
    00:47:42.039 : 8
    00:57:04.330 : 9
    01:03:54.079 : 10
    01:09:54.246 : 11
    01:15:51.954 : 12
    01:21:24.579 : 13
    01:30:35.412 : 14
    01:37:25.870 : 15
    01:43:45.328 : 16
    Menu #2
    ID : 5
    Codec ID : text
    Duration : 1h 55mn
    Language : English
    Encoded date : UTC 2016-05-02 21:18:31
    Tagged date : UTC 2016-05-02 21:18:31
    Menu For : 1
    00:00:00.000 : 1
    00:09:06.375 : 2
    00:15:30.125 : 3
    00:20:40.083 : 4
    00:27:24.499 : 5
    00:34:00.915 : 6
    00:40:23.873 : 7
    00:47:42.039 : 8
    00:57:04.330 : 9
    01:03:54.079 : 10
    01:09:54.246 : 11
    01:15:51.954 : 12
    01:21:24.579 : 13
    01:30:35.412 : 14
    01:37:25.870 : 15
    01:43:45.328 : 16
    Bit rate mode : VBR

    Скриншоты

    -

    Релиз подготовлен для просмотра на Apple TV, iPad, iPhone, iPod Touch.
    Для просмотра данного релиза на компьютере с ОС Windows рекомендуется использовать VLC media player
    Скачать .torrent

    Скачать торрент-файл бесплатно и на максимальной скорости!

    Как скачивать? · Что такое торрент? · Рейтинг и ограничения

    !ВНИМАНИЕ!
    Сайт не распространяет и не хранит электронные версии произведений, а занимается лишь лишь предоставлением доступа к создаваемому пользователями каталогу ссылок на торрент-файлы, которые содержат только списки хеш-сумм, убедительная просьба с жалобами обращаться напрямую к пользователю. Файлы для обмена на трекере предоставлены пользователями сайта, и администрация не несёт ответственности за их содержание. Просьба не заливать файлы, защищенные авторскими правами, а также файлы нелегального содержания!


    _________________
    [Профиль] [ЛС]
    Показать сообщения:    
    Ответить на тему

    Текущее время: Сегодня, в 19:32

    Часовой пояс: GMT + 2



    Вы не можете начинать темы
    Вы не можете отвечать на сообщения
    Вы не можете редактировать свои сообщения
    Вы не можете удалять свои сообщения
    Вы не можете голосовать в опросах
    Вы не можете прикреплять файлы к сообщениям
    Вы не можете скачивать файлы