BitTorrentTracker PerecTracker.org
BitTorrentTracker PerecTracker.org
    
Регистрация  ·  Вход
 
 · 
Забыли пароль?

  • Книга джунглей / The Jungle Book (Джон Фавро / Jon Favreau) [2016, США, Приключения, Фэнтези, Драма, Комедия, TeleSynch] Dub

    Ответить на тему
     
    Автор Сообщение

    rechyn

    Создавать темы 03-Май-2016 03:57

           

    [Цитировать]

    Книга джунглей / The Jungle Book
    Страна: США
    Жанр: Приключения, Фэнтези, Драма, Комедия
    Год выпуска: 2016
    Продолжительность: 01:46:22
    Перевод: Профессиональный (дублированный)
    Cубтитры: нет
    Режиссёр: Джон Фавро / Jon Favreau
    В ролях: Нил Сетхи/Маугли, Билл Мюррей/Балу, Бэн Кингсли/Багира, Идрис Элба/Шерхан, Лупита Ньёнгъо/Ракша, Скарлетт Йоханссон/Каа, Джанкарло Эспозито/Акела, Кристофер Уокен/Король Луи, Гарри Шендлинг/Икки, Брайтон Роуз/Грэй
    Описание: Непримиримая борьба с опасным и внушающим страх тигром Шерханом вынуждает Маугли покинуть волчью стаю и отправиться в захватывающее путешествие. На пути мальчика ждут удивительные открытия и запоминающиеся встречи с пантерой Багирой, медведем Балу, питоном Каа и другими обитателями дремучих джунглей.-
    -Доп. информация: Данная версия фильма является полной по продолжительности. Звуковая дорожка была собрана из камрипа и китайской озвучки. В одном фрагменте слышна китайская речь, но на понимании сюжета это не отразится, так как в этом фрагменте всё понятно и без перевода.
    Качество видео: TeleSynch
    Формат видео: AVI
    Видео: XviD, 720x384 (1.85:1), 23.976 fps, 1829 Kbps, 0.276 bit/pixel
    Аудио: MP3, 48.0 KHz, 2 ch, 128 Kbps

    MediaInfo

    General
    Complete name : D:\Torrent\Films\Книга джунглей (2016) TS PROPER.avi
    Format : AVI
    Format/Info : Audio Video Interleave
    File size : 1.46 GiB
    Duration : 1h 46mn
    Overall bit rate : 1 966 Kbps
    Movie name : Книга джунглей / The Jungle Book (2016) TS *PROPER* by Burzum666
    Writing application : VirtualDubMod 1.5.10.2 (build 2540/release)
    Writing library : VirtualDubMod build 2540/release
    Video
    ID : 0
    Format : MPEG-4 Visual
    Format profile : Advanced Simple@L5
    Format settings, BVOP : Yes
    Format settings, QPel : No
    Format settings, GMC : No warppoints
    Format settings, Matrix : Default (MPEG)
    Codec ID : XVID
    Codec ID/Hint : XviD
    Duration : 1h 46mn
    Bit rate : 1 829 Kbps
    Width : 720 pixels
    Height : 384 pixels
    Display aspect ratio : 1.85:1
    Frame rate : 23.976 fps
    Color space : YUV
    Chroma subsampling : 4:2:0
    Bit depth : 8 bits
    Scan type : Progressive
    Compression mode : Lossy
    Bits/(Pixel*Frame) : 0.276
    Stream size : 1.36 GiB (93%)
    Writing library : XviD 1.2.1 (UTC 2008-12-04)
    Audio
    ID : 1
    Format : MPEG Audio
    Format version : Version 1
    Format profile : Layer 3
    Mode : Joint stereo
    Codec ID : 55
    Codec ID/Hint : MP3
    Duration : 1h 46mn
    Bit rate mode : Constant
    Bit rate : 128 Kbps
    Channel count : 2 channels
    Sampling rate : 48.0 KHz
    Compression mode : Lossy
    Stream size : 97.4 MiB (7%)
    Alignment : Aligned on interleaves
    Interleave, duration : 42 ms (1.00 video frame)
    Interleave, preload duration : 504 ms

    Скриншот c названием фильма

    Посторонние надписи, расположенные поверх названия фильма, исчезнут вслед за сменой панорамы съёмки (это наглядно видно на втором скриншоте и в сэмпле ниже) Сэмпл

    Скриншоты

    Скачать .torrent

    Скачать торрент-файл бесплатно и на максимальной скорости!

    Как скачивать? · Что такое торрент? · Рейтинг и ограничения

    !ВНИМАНИЕ!
    Сайт не распространяет и не хранит электронные версии произведений, а занимается лишь лишь предоставлением доступа к создаваемому пользователями каталогу ссылок на торрент-файлы, которые содержат только списки хеш-сумм, убедительная просьба с жалобами обращаться напрямую к пользователю. Файлы для обмена на трекере предоставлены пользователями сайта, и администрация не несёт ответственности за их содержание. Просьба не заливать файлы, защищенные авторскими правами, а также файлы нелегального содержания!


    _________________
    [Профиль] [ЛС]
    Показать сообщения:    
    Ответить на тему

    Текущее время: Сегодня, в 00:37

    Часовой пояс: GMT + 2



    Вы не можете начинать темы
    Вы не можете отвечать на сообщения
    Вы не можете редактировать свои сообщения
    Вы не можете удалять свои сообщения
    Вы не можете голосовать в опросах
    Вы не можете прикреплять файлы к сообщениям
    Вы не можете скачивать файлы