Register  ·  Log in
Forgot password?

  • Скауты против зомби / Scouts Guide to the Zombie Apocalypse (Кристофер Лэндон / Christopher Landon) [2015 г., США, ужасы, боевик, комедия, HDRip] Dub

    Reply to topic
    Author Message


    Post 03-May-2016 04:57



    -Скауты против зомби / Scouts Guide to the Zombie Apocalypse--Год выпуска: 2015Страна: СШАЖанр: ужасы, боевик, комедия-Продолжительность: 01:32:45Перевод: Профессиональный (дублированный)Субтитры: нет--Режиссер:Кристофер Лэндон / Christopher Landon-В ролях:Тай Шеридан, Логан Миллер, Джои Морган, Сара Дюмон, Дэвид Кокнер, Холстон Сейдж, Клорис Личмен, Ники Косс, Хирам А. Мюррэй, Лукас Гейдж, Дрю Дродж, Патрик Шварценеггер-Описание:
    Встречайте самую нелепую команду героев в мире — трое закадычных друзей-бойскаутов и безбашенная официантка. Именно им выпадает миссия остановить зомбиапокалипсис, который уже погрузил в хаос захолустный сонный городок и грозит охватить всю планету. Последняя надежда человечества — скаутские приемы и умения. К борьбе с зомби будь готов! Всегда готов!
    --Дополнительная информация:-
    -Сэмпл Рип совместим с бытовыми DVD-проигрывателями.--Качество видео: HDRip (Исходник: BDRip 1080p)
    Формат видео: AVI
    Видео: 656x272 (2.4:1), 23.976 fps, XviD build 73 ~986 kbps avg, 0.230 bit/pixel
    Аудио: 48 kHz, MPEG Layer 3, 2 ch, 128.00 kbps (Dub)-Скриншоты

    Скриншот с названием


    Complete name : \Skauty_protiv_zombi_(2015).HDRip.mp3.Dub_[All.Films][RG].avi
    Format : AVI
    Format/Info : Audio Video Interleave
    File size : 745 MiB
    Duration : 1h 32mn
    Overall bit rate : 1 123 Kbps
    Movie name : Скауты против зомби / Scouts Guide to the Zombie Apocalypse (2015) HDRip | <VIRUS> [][All.Films][RG]
    Director : <VIRUS> []
    Writing application : VirtualDubMod | || (build 2550/release)
    Copyright : <VIRUS> []
    ID : 0
    Format : MPEG-4 Visual
    Format profile : Advanced Simple@L5
    Format settings, BVOP : 2
    Format settings, QPel : No
    Format settings, GMC : No warppoints
    Format settings, Matrix : Custom
    Codec ID : XVID
    Codec ID/Hint : XviD
    Duration : 1h 32mn
    Bit rate : 986 Kbps
    Width : 656 pixels
    Height : 272 pixels
    Display aspect ratio : 2.40:1
    Frame rate : 23.976 fps
    Color space : YUV
    Chroma subsampling : 4:2:0
    Bit depth : 8 bits
    Scan type : Progressive
    Compression mode : Lossy
    Bits/(Pixel*Frame) : 0.230
    Stream size : 654 MiB (88%)
    Writing library : XviD 73
    ID : 1
    Format : MPEG Audio
    Format version : Version 1
    Format profile : Layer 3
    Codec ID : 55
    Codec ID/Hint : MP3
    Duration : 1h 32mn
    Bit rate mode : Constant
    Bit rate : 128 Kbps
    Channel(s) : 2 channels
    Sampling rate : 48.0 KHz
    Compression mode : Lossy
    Stream size : 84.9 MiB (11%)
    Alignment : Aligned on interleaves
    Interleave, duration : 42 ms (1.00 video frame)
    Interleave, preload duratio : 504 ms
    Writing library : LAME3.99r
    Encoding settings : -m s -V 4 -q 0 -lowpass 17 -b 128
    Download .torrent

    Download free and at maximum speed!

    How to Download? · What is a torrent? · Ratings and Limitations

    The site does not extend and does not store electronic(digital) versions of products, and only gives access to a reference catalogue created by users on torrent-files which contain only lists of the hash-sums, the earnest entreaty, with complaints(abuse) to access directly to the user. Files for an exchange on tracker are given by users of a site, and the administration does not bear the responsibility for their maintenance. The request to not fill in the files protected by copyrights, and also files of the illegal maintenance!

    [Profile] [PM]
    Display posts from previous:    
    Reply to topic

    The time now is: Today 08:22

    All times are GMT + 3 Hours

    You cannot post new topics in this forum
    You cannot reply to topics in this forum
    You cannot edit your posts in this forum
    You cannot delete your posts in this forum
    You cannot vote in polls in this forum
    You cannot attach files in this forum
    You cannot download files in this forum