BitTorrentTracker PerecTracker.org
BitTorrentTracker PerecTracker.org
    
Регистрация  ·  Вход
 
 · 
Забыли пароль?

  • Голубая стрела / The Blue Arrow (Энцо Д\'Ало / Enzo d\'Alo) [1996, Приключения, рождественская сказка, VHSRip-AVC] DVO

    Ответить на тему
     
    Автор Сообщение

    Flirldrerve

    Создавать темы 02-Май-2016 23:52

           

    [Цитировать]

    -Голубая стрела / The Blue Arrow-Английское название: The Blue Arrow
    Русское название: Голубая стрела
    Год выпуска: 1996.
    Страна: Италия, Швейцария, Люксембург.
    Жанр: Приключения, рождественская сказка.
    Продолжительность: 1:30:33
    Перевод: Профессиональный (Двухголосный, закадровый)
    Субтитры: Нет
    Режиссёр: Энцо Д'Ало-Описание: Каждый год на Рождество добрая фея Бефана дарит детям игрушки. Однажды ей решил помешать жадный и злой доктор Скарафони. Однако игрушки ломают его коварные планы. Чтобы вовремя попасть к детям на рождество, они спасаются бегством на поезде "Голубая стрела" ...-Релиз от: -Над релизом работали:
    EJTM .......Первоначальная раздача и рип
    ALEKS KV .......Предоставил кассету, оцфировка, энкод, итоговый муксинг
    mihail2501 .......Работа со сканами
    -
    Ссылка на остальные раздачи
    -
    Сэмпл
    Качество: VHSRip-AVC
    Формат видео: MKV
    Видео кодек: x264
    Аудио кодек: AC3
    Видео: x264 8bit 720x544 25.000fps 3404Kbps 4:3 High Profile 3.1
    Аудио:
    • русская: Dolby AC3 48000Hz 16bit |DualMono| 192Kbps [DVO] {Звук с Hi-Fi кассеты}

    -

    Подробные технические данные

    GeneralUnique ID : 174505216141878626818861773335497662957 (0x83487B6C57F1A7C195BD43F99A05E1ED)Complete name : X:\XXXXXXXX\[M-KV2501] The Blue Arrow [VHSRip].mkvFormat : MatroskaFormat version : Version 2File size : 2.32 GiBDuration : 1h 30mnOverall bit rate : 3 669 KbpsEncoded date : UTC 2015-10-09 00:56:07Writing application : mkvmerge v5.5.0 ('Healer') built on Apr 6 2012 21:43:24Writing library : libebml v1.2.3 + libmatroska v1.3.0
    VideoID : 1Format : AVCFormat/Info : Advanced Video CodecFormat profile : High@L3.1Format settings, CABAC : YesFormat settings, ReFrames : 10 framesCodec ID : V_MPEG4/ISO/AVCDuration : 1h 30mnBit rate : 3 404 KbpsWidth : 720 pixelsHeight : 544 pixelsDisplay aspect ratio : 4:3Frame rate mode : ConstantFrame rate : 25.000 fpsColor space : YUVChroma subsampling : 4:2:0Bit depth : 8 bitsScan type : ProgressiveBits/(Pixel*Frame) : 0.348Stream size : 2.15 GiB (93%)Title : OriginalWriting library : x264 core 148 r2597 e86f3a1Encoding settings : cabac=1 / ref=10 / deblock=1:0:0 / analyse=0x3:0x113 / me=umh / subme=9 / psy=1 / psy_rd=1.00:0.00 / mixed_ref=1 / me_range=24 / chroma_me=1 / trellis=1 / 8x8dct=1 / cqm=0 / deadzone=21,11 / fast_pskip=1 / chroma_qp_offset=-2 / threads=12 / lookahead_threads=2 / sliced_threads=0 / nr=0 / decimate=1 / interlaced=0 / bluray_compat=0 / constrained_intra=0 / bframes=7 / b_pyramid=2 / b_adapt=2 / b_bias=0 / direct=3 / weightb=1 / open_gop=0 / weightp=2 / keyint=250 / keyint_min=25 / scenecut=40 / intra_refresh=0 / rc_lookahead=50 / rc=crf / mbtree=1 / crf=17.0 / qcomp=0.60 / qpmin=0 / qpmax=69 / qpstep=4 / vbv_maxrate=17500 / vbv_bufsize=17500 / crf_max=0.0 / nal_hrd=none / filler=0 / ip_ratio=1.40 / aq=1:1.00Language : EnglishDefault : YesForced : No
    AudioID : 2Format : AC-3Format/Info : Audio Coding 3Mode extension : CM (complete main)Format settings, Endianness : BigCodec ID : A_AC3Duration : 1h 30mnBit rate mode : ConstantBit rate : 192 KbpsChannel(s) : 2 channelsChannel positions : Front: L RSampling rate : 48.0 KHzFrame rate : 31.250 fps (1536 spf)Compression mode : LossyStream size : 124 MiB (5%)Title : DVO АргусLanguage : RussianDefault : YesForced : No

    Сканы

    Скриншоты

    Правила, условия распространения (к прочтению обязательно)

    Внимание, данная раздача содержит эксклюзивный контент от M-KV2501. Использовать контент без баннера группы: и указания первоначального источника - ЗАПРЕЩЕНО! Уважайте чужой труд!
    Скачать .torrent

    Скачать торрент-файл бесплатно и на максимальной скорости!

    Как скачивать? · Что такое торрент? · Рейтинг и ограничения

    !ВНИМАНИЕ!
    Сайт не распространяет и не хранит электронные версии произведений, а занимается лишь лишь предоставлением доступа к создаваемому пользователями каталогу ссылок на торрент-файлы, которые содержат только списки хеш-сумм, убедительная просьба с жалобами обращаться напрямую к пользователю. Файлы для обмена на трекере предоставлены пользователями сайта, и администрация не несёт ответственности за их содержание. Просьба не заливать файлы, защищенные авторскими правами, а также файлы нелегального содержания!


    _________________
    [Профиль] [ЛС]
    Показать сообщения:    
    Ответить на тему

    Текущее время: Сегодня, в 08:19

    Часовой пояс: GMT + 2



    Вы не можете начинать темы
    Вы не можете отвечать на сообщения
    Вы не можете редактировать свои сообщения
    Вы не можете удалять свои сообщения
    Вы не можете голосовать в опросах
    Вы не можете прикреплять файлы к сообщениям
    Вы не можете скачивать файлы