BitTorrentTracker PerecTracker.org
BitTorrentTracker PerecTracker.org
    
Регистрация  ·  Вход
 
 · 
Забыли пароль?

  • Незабываемое / Unforgettable (Джон Дал) [1996, США, фантастика, триллер, детектив, BDRip HD (720p), SD (480p)] DVO, AVO, Original + SUB (rus, eng)

    Ответить на тему
     
    Автор Сообщение

    rechyn

    Создавать темы 02-Май-2016 23:52

           

    [Цитировать]

    Незабываемое / Unforgettable
    "He loved her. He lost her. He won't let her memory die... until it tells him who killed her"
    7.197 / 10
    -Год выпуска: 1996
    Страна: США
    Жанр: фантастика, триллер, детектив
    Продолжительность: 117 мин. (01:56:47)
    Перевод: Двухголосый закадровый закадровый перевод и одноголосый закадровый авторский перевод
    Оригинальная аудиодорожка: Есть
    Cубтитры: Русские полные и английские полные
    Режиссёр: Джон Дал
    Сценарий: Билл Гедди
    Продюсер: Дино Де Лаурентис, Марта Де Лаурентис, Рик Дал
    Оператор: Джеф Джёр
    Композитор: Кристофер Янг
    Художник: Роберт Пирсон, Даг Бидждин, Гленн Кэмпбелл
    Монтаж: Эрик Л. Бисон, Скотт Честнат
    В ролях: Рэй Лиотта, Линда Фиорентино, Питер Койот, Кристофер МакДональд, Дэвид Пэймер, Дункан Фрайзер, Кэролайн Эллиотт, Коллин Реннисон, Ким Кэтролл, Стеллина Русиш
    Бюджет: $18 000 000
    Сборы в США: $2 821 671
    Мировая премьера: 16 февраля 1996
    Релиз на DVD: 14 июня 2001, West Video
    Описание: Жена судмедэксперта Дэвида Крэйна была зверски убита, а сам Дэвид в состоянии алкогольного опьянения находился рядом, где и был задержан полицией. Суд снял с Дэвида обвинение в убийстве, но лишил его права воспитывать детей.
    Случайно услышав доклад нейробиолога Марты Бриггс, Дэвид принимает решение стать подопытной крысой. Дело в том, что, если ввести себе спинномозговую жидкость мертвого человека, то можно видеть произошедшее перед смертью его глазами. Несколько инъекций, и Дэвид раскрывает жуткое преступление. Однако, жизнь самого Дэвида теперь висит на волоске - выберется он из этого эксперимента или погибнет, как погибает каждое восьмое подопытное животное?-Качество исходника: BD-Remux 1080p (HDClub)
    Качество: BDRip
    Тип: 480p 720p
    Контейнер: m4v
    Видео: 640x460 анаморф 852x460 at 23.976 fps, MPEG-4 AVC, ~1800 kbps avg
    Видео: 1280x696 at 23.976 fps, MPEG-4 AVC, ~7000 kbps avg
    Аудио#1: Russian: 48 kHz, ААС, 2/0 (L,R), ~128.00 / 160.00 kbps avg |Двухголосый закадровый|
    Аудио#2: Russian: 48 kHz, ААС, 2/0 (L,R), ~128.00 / 160.00 kbps avg |Одноголосый закадровый, П. Карцев|
    Аудио#3: Ukrainian: 48 kHz, ААС, 2/0 (L,R), ~128.00 / 160.00 kbps avg |Двухголосый закадровый, TBi|
    Аудио#4: English: 48 kHz, ААС, 2/0 (L,R), ~128.00 / 160.00 kbps avg
    Аудио#5: Russian: 48 kHz, AC3, 3/2 (L,C,R,l,r) + LFE ch, ~384.00 kbps avg |Многолосый закадровый, DVD Liga|
    Аудио#6: Russian: 48 kHz, AC3, 3/2 (L,C,R,l,r) + LFE ch, ~640.00 kbps avg |Одноголосый закадровый, П. Карцев|
    Аудио#7: English: 48 kHz, AC3, 3/2 (L,C,R,l,r) + LFE ch, ~640.00 kbps avg
    Субтитры №1: Russian: |Полные|
    Субтитры №2: English: |Полные|-

    iTunes Meta Tags for country us

    Name: Unforgettable (1996)
    Artist: Jonn Dahl
    Genre: Drama
    Release Date: 1996-02-16T08:00:00Z
    Description: Жена судмедэксперта Дэвида Крэйна была зверски убита, а сам Дэвид в состоянии алкогольного опьянения находился рядом, где и был задержан полицией. Суд снял с Дэвида обвинение в убийстве, но лишил его права воспитывать детей...
    Long Description: Жена судмедэксперта Дэвида Крэйна была зверски убита, а сам Дэвид в состоянии алкогольного опьянения находился рядом, где и был задержан полицией. Суд снял с Дэвида обвинение в убийстве, но лишил его права воспитывать детей.
    Случайно услышав доклад нейробиолога Марты Бриггс, Дэвид принимает решение стать подопытной крысой. Дело в том, что, если ввести себе спинномозговую жидкость мертвого человека, то можно видеть произошедшее перед смертью его глазами. Несколько инъекций, и Дэвид раскрывает жуткое преступление. Однако, жизнь самого Дэвида теперь висит на волоске - выберется он из этого эксперимента или погибнет, как погибает каждое восьмое подопытное животное?
    Rating: R
    Rating Annotation: Rated R for strong violence, language and nudity.
    Studio: MGM
    Cast: Рэй Лиотта, Линда Фиорентино, Питер Койот, Кристофер МакДональд, Дэвид Пэймер, Дункан Фрайзер, Кэролайн Эллиотт, Коллин Реннисон, Ким Кэтролл, Стеллина Русиш
    Director: Джон Дал
    Producers: Дино Де Лаурентис, Марта Де Лаурентис, Рик Дал
    Screenwriters: Билл Гедди
    Copyright: © 1996 METRO-GOLDWYN-MAYER PICTURES INC.
    contentID: 362284607
    XID: Apple:vendor_id:1996-10906
    Sort Name: Unforgettable (1996)

    MediaInfo 480p Release

    Общее
    Полное имя : Unforgettable (1996).m4v
    Формат : MPEG-4
    Идентификатор кодека : M4V  (M4V /M4A /mp42/isom)
    Размер файла : 1,90 Гбайт
    Продолжительность : 1 ч. 56 м.
    Режим общего битрейта : Переменный
    Общий поток : 2331 Кбит/сек
    Название фильма : Unforgettable (1996)
    Исполнитель : Jonn Dahl
    Режиссёр : Джон Дал
    Исполнитель : Рэй Лиотта / Линда Фиорентино / Питер Койот / Кристофер МакДональд / Дэвид Пэймер / Дункан Фрайзер / Кэролайн Эллиотт / Коллин Реннисон / Ким Кэтролл / Стеллина Русиш
    Сценарист : Билл Гедди
    Продюсер : Дино Де Лаурентис / Марта Де Лаурентис / Рик Дал
    Студия-производитель : MGM
    Жанр : Drama
    Тип содержимого : Short Film
    Описание : Жена судмедэксперта Дэвида Крэйна была зверски убита, а сам Дэвид в состоянии алкогольного опьянения находился рядом, где и был задержан полицией. Суд снял с Дэвида обвинение в убийстве, но лишил его права воспитывать детей...
    Дата записи : UTC 1996-02-16 08:00:00
    Дата кодирования : UTC 2016-04-23 06:54:12
    Дата пометки : UTC 2016-04-23 10:52:09
    Авторское право : © 1996 METRO-GOLDWYN-MAYER PICTURES INC.
    Обложка : Yes
    Оценка : None
    Title/Sort : Unforgettable
    LongDescription : Жена судмедэксперта Дэвида Крэйна была зверски убита, а сам Дэвид в состоянии алкогольного опьянения находился рядом, где и был задержан полицией. Суд снял с Дэвида обвинение в убийстве, но лишил его права воспитывать детей. / Случайно услышав доклад нейробиолога Марты Бриггс, Дэвид принимает решение стать подопытной крысой. Дело в том, что, если ввести себе спинномозговую жидкость мертвого человека, то можно видеть произошедшее перед смертью его глазами. Несколько инъекций, и Дэвид раскрывает жуткое преступление. Однако, жизнь самого Дэвида теперь висит на волоске - выберется он из этого эксперимента или погибнет, как погибает каждое восьмое подопытное животное?
    AppleStoreCatalogID : 362284607
    Vendor : Apple:vendor_id:1996-10906
    ContentRating : mpaa|R|400|Rated R for strong violence, language and nudity.
    Видео #1
    Идентификатор : 1
    Формат : AVC
    Формат/Информация : Advanced Video Codec
    Профиль формата : Baseline@L3
    Параметр CABAC формата : Нет
    Параметр ReFrames формата : 2 кадра
    Идентификатор кодека : avc1
    Идентификатор кодека/Информация : Advanced Video Coding
    Продолжительность : 1 ч. 56 м.
    Битрейт : 1800 Кбит/сек
    Ширина : 640 пикселей
    Высота : 460 пикселей
    Соотношение сторон : 1,85:1
    Режим частоты кадров : Переменный
    Частота кадров : 23,976 (24000/1001) кадра/сек
    Минимальная частота кадров : 23,974 кадра/сек
    Максимальная частота кадров : 23,981 кадра/сек
    Цветовое пространство : YUV
    Субдискретизация насыщенности : 4:2:0
    Битовая глубина : 8 бит
    Тип развёртки : Прогрессивная
    Бит/(Пиксели*Кадры) : 0.255
    Размер потока : 1,47 Гбайт (77%)
    Заголовок : Main Program
    Библиотека кодирования : x264 core 130 r2273 b3065e6
    Настройки программы : cabac=0 / ref=2 / deblock=1:0:0 / analyse=0x1:0x111 / me=umh / subme=6 / psy=1 / psy_rd=1.00:0.00 / mixed_ref=1 / me_range=16 / chroma_me=1 / trellis=0 / 8x8dct=0 / cqm=0 / deadzone=21,11 / fast_pskip=1 / chroma_qp_offset=-2 / threads=18 / lookahead_threads=3 / sliced_threads=0 / nr=0 / decimate=1 / interlaced=0 / bluray_compat=0 / constrained_intra=0 / bframes=0 / weightp=0 / keyint=240 / keyint_min=24 / scenecut=40 / intra_refresh=0 / rc_lookahead=40 / rc=2pass / mbtree=1 / bitrate=1800 / ratetol=1.0 / qcomp=0.60 / qpmin=0 / qpmax=69 / qpstep=4 / cplxblur=20.0 / qblur=0.5 / vbv_maxrate=5000 / vbv_bufsize=5000 / nal_hrd=none / ip_ratio=1.40 / aq=1:1.00
    Язык : English
    Дата кодирования : UTC 2016-04-23 06:54:12
    Дата пометки : UTC 2016-04-23 06:54:17
    Цветовой диапазон : Limited
    Основные цвета : BT.709
    Характеристики трансфера : BT.709
    Коэффициенты матрицы : BT.709
    Menus : 8,9
    Видео #2
    Идентификатор : 9
    Формат : JPEG
    Идентификатор кодека : jpeg
    Продолжительность : 1 ч. 56 м.
    Вид битрейта : Переменный
    Битрейт : 314 бит/сек
    Ширина : 640 пикселей
    Высота : 345 пикселей
    Соотношение сторон : 1,85:1
    Режим частоты кадров : Постоянный
    Частота кадров : 0,001 кадр/сек
    Цветовое пространство : YUV
    Субдискретизация насыщенности : 4:2:0
    Битовая глубина : 8 бит
    Метод сжатия : С потерями
    Бит/(Пиксели*Кадры) : 1.422
    Размер потока : 307 Кбайт (0%)
    Заголовок : Chapter Images
    Язык : English
    Default : Нет
    Дата кодирования : UTC 2016-04-23 10:50:41
    Дата пометки : UTC 2016-04-23 10:50:41
    Menu For : 1
    Аудио #1
    Идентификатор : 2
    Формат : AAC
    Формат/Информация : Advanced Audio Codec
    Профиль формата : LC
    Идентификатор кодека : 40
    Продолжительность : 1 ч. 56 м.
    Вид битрейта : Переменный
    Битрейт : 132 Кбит/сек
    Максимальный битрейт : 192 Кбит/сек
    Каналы : 2 канала
    Расположение каналов : Front: L R
    Частота : 48,0 КГц
    Частота кадров : 46,875 кадров/сек (1024 spf)
    Метод сжатия : С потерями
    Размер потока : 110 Мбайт (6%)
    Заголовок : Russian DVO Stereo
    Язык : Russian
    Default : Да
    Alternate group : 1
    Дата кодирования : UTC 2016-04-23 06:54:12
    Дата пометки : UTC 2016-04-23 06:54:23
    Menus : 8
    Аудио #2
    Идентификатор : 3
    Формат : AAC
    Формат/Информация : Advanced Audio Codec
    Профиль формата : LC
    Идентификатор кодека : 40
    Продолжительность : 1 ч. 56 м.
    Вид битрейта : Переменный
    Битрейт : 132 Кбит/сек
    Максимальный битрейт : 227 Кбит/сек
    Каналы : 2 канала
    Расположение каналов : Front: L R
    Частота : 48,0 КГц
    Частота кадров : 46,875 кадров/сек (1024 spf)
    Метод сжатия : С потерями
    Размер потока : 109 Мбайт (6%)
    Заголовок : Russian AVO P.Kartsev Stereo
    Язык : Russian
    Default : Нет
    Alternate group : 1
    Дата кодирования : UTC 2016-04-23 06:54:12
    Дата пометки : UTC 2016-04-23 06:54:23
    Аудио #3
    Идентификатор : 4
    Формат : AAC
    Формат/Информация : Advanced Audio Codec
    Профиль формата : LC
    Идентификатор кодека : 40
    Продолжительность : 1 ч. 56 м.
    Вид битрейта : Переменный
    Битрейт : 129 Кбит/сек
    Максимальный битрейт : 191 Кбит/сек
    Каналы : 2 канала
    Расположение каналов : Front: L R
    Частота : 48,0 КГц
    Частота кадров : 46,875 кадров/сек (1024 spf)
    Метод сжатия : С потерями
    Размер потока : 107 Мбайт (6%)
    Заголовок : Ukrainian DVO TBi Stereo
    Язык : Ukrainian
    Default : Нет
    Alternate group : 1
    Дата кодирования : UTC 2016-04-23 06:54:12
    Дата пометки : UTC 2016-04-23 06:54:23
    Аудио #4
    Идентификатор : 5
    Формат : AAC
    Формат/Информация : Advanced Audio Codec
    Профиль формата : LC
    Идентификатор кодека : 40
    Продолжительность : 1 ч. 56 м.
    Вид битрейта : Переменный
    Битрейт : 132 Кбит/сек
    Максимальный битрейт : 227 Кбит/сек
    Каналы : 2 канала
    Расположение каналов : Front: L R
    Частота : 48,0 КГц
    Частота кадров : 46,875 кадров/сек (1024 spf)
    Метод сжатия : С потерями
    Размер потока : 110 Мбайт (6%)
    Заголовок : English Stereo
    Язык : English
    Default : Нет
    Alternate group : 1
    Дата кодирования : UTC 2016-04-23 06:54:12
    Дата пометки : UTC 2016-04-23 06:54:23
    Текст #1
    Идентификатор : 6
    Формат : Timed Text
    Режим смешивания : sbtl
    Идентификатор кодека : tx3g
    Продолжительность : 1 ч. 51 м.
    Вид битрейта : Переменный
    Битрейт : 67 бит/сек
    Размер потока : 54,7 Кбайт (0%)
    Заголовок : Russian Subtitle
    Язык : Russian
    Default : Да
    Forced : Нет
    Alternate group : 2
    Дата кодирования : UTC 2016-04-23 10:50:38
    Дата пометки : UTC 2016-04-23 10:50:38
    Текст #2
    Идентификатор : 7
    Формат : Timed Text
    Режим смешивания : sbtl
    Идентификатор кодека : tx3g
    Продолжительность : 1 ч. 51 м.
    Вид битрейта : Переменный
    Битрейт : 43 бит/сек
    Размер потока : 35,5 Кбайт (0%)
    Заголовок : English Subtitle
    Язык : English
    Default : Нет
    Forced : Нет
    Alternate group : 2
    Дата кодирования : UTC 2016-04-23 10:50:38
    Дата пометки : UTC 2016-04-23 10:50:38
    Меню #1
    00:00:00.000 : 1
    00:09:55.094 : 2
    00:23:30.534 : 3
    00:41:35.534 : 4
    00:56:45.652 : 5
    01:09:40.091 : 6
    01:25:04.099 : 7
    01:36:02.297 : 8
    Меню #2
    Идентификатор : 8
    Идентификатор кодека : text
    Продолжительность : 1 ч. 56 м.
    Заголовок : Chapter Titles
    Язык : English
    Дата кодирования : UTC 2016-04-23 10:50:38
    Дата пометки : UTC 2016-04-23 10:50:38
    Вид битрейта : CBR
    Menu For : 2,1
    00:00:00.000 : 1
    00:09:55.094 : 2
    00:23:30.534 : 3
    00:41:35.534 : 4
    00:56:45.652 : 5
    01:09:40.091 : 6
    01:25:04.099 : 7
    01:36:02.297 : 8

    MediaInfo 720p Release

    Общее
    Полное имя : Unforgettable (1996) (HD).m4v
    Формат : MPEG-4
    Идентификатор кодека : M4V  (M4V /M4A /mp42/isom)
    Размер файла : 7,59 Гбайт
    Продолжительность : 1 ч. 56 м.
    Режим общего битрейта : Переменный
    Общий поток : 9303 Кбит/сек
    Название фильма : Unforgettable (1996)
    Исполнитель : Jonn Dahl
    Режиссёр : Джон Дал
    Исполнитель : Рэй Лиотта / Линда Фиорентино / Питер Койот / Кристофер МакДональд / Дэвид Пэймер / Дункан Фрайзер / Кэролайн Эллиотт / Коллин Реннисон / Ким Кэтролл / Стеллина Русиш
    Сценарист : Билл Гедди
    Продюсер : Дино Де Лаурентис / Марта Де Лаурентис / Рик Дал
    Студия-производитель : MGM
    Жанр : Drama
    Тип содержимого : Short Film
    Описание : Жена судмедэксперта Дэвида Крэйна была зверски убита, а сам Дэвид в состоянии алкогольного опьянения находился рядом, где и был задержан полицией. Суд снял с Дэвида обвинение в убийстве, но лишил его права воспитывать детей...
    Дата записи : UTC 1996-02-16 08:00:00
    Дата кодирования : UTC 2016-04-23 06:53:44
    Дата пометки : UTC 2016-04-23 10:51:32
    Авторское право : © 1996 METRO-GOLDWYN-MAYER PICTURES INC.
    Обложка : Yes
    Оценка : None
    Title/Sort : Unforgettable
    LongDescription : Жена судмедэксперта Дэвида Крэйна была зверски убита, а сам Дэвид в состоянии алкогольного опьянения находился рядом, где и был задержан полицией. Суд снял с Дэвида обвинение в убийстве, но лишил его права воспитывать детей. / Случайно услышав доклад нейробиолога Марты Бриггс, Дэвид принимает решение стать подопытной крысой. Дело в том, что, если ввести себе спинномозговую жидкость мертвого человека, то можно видеть произошедшее перед смертью его глазами. Несколько инъекций, и Дэвид раскрывает жуткое преступление. Однако, жизнь самого Дэвида теперь висит на волоске - выберется он из этого эксперимента или погибнет, как погибает каждое восьмое подопытное животное?
    HDVideo : Yes
    AppleStoreCatalogID : 362284607
    Vendor : Apple:vendor_id:1996-10906
    ContentRating : mpaa|R|400|Rated R for strong violence, language and nudity.
    Видео #1
    Идентификатор : 1
    Формат : AVC
    Формат/Информация : Advanced Video Codec
    Профиль формата : High@L3.1
    Параметр CABAC формата : Нет
    Параметр ReFrames формата : 3 кадра
    Идентификатор кодека : avc1
    Идентификатор кодека/Информация : Advanced Video Coding
    Продолжительность : 1 ч. 56 м.
    Продолжительность оригинала : 1 ч. 56 м.
    Битрейт : 7000 Кбит/сек
    Ширина : 1280 пикселей
    Высота : 696 пикселей
    Соотношение сторон : 1,85:1
    Режим частоты кадров : Переменный
    Частота кадров : 23,976 (24000/1001) кадра/сек
    Минимальная частота кадров : 23,974 кадра/сек
    Максимальная частота кадров : 23,981 кадра/сек
    Цветовое пространство : YUV
    Субдискретизация насыщенности : 4:2:0
    Битовая глубина : 8 бит
    Тип развёртки : Прогрессивная
    Бит/(Пиксели*Кадры) : 0.328
    Размер потока : 5,69 Гбайт (75%)
    Размер потока оригинала : 5,69 Гбайт (75%)
    Заголовок : Main Program
    Библиотека кодирования : x264 core 130 r2273 b3065e6
    Настройки программы : cabac=0 / ref=3 / deblock=1:-3:-2 / analyse=0x3:0x113 / me=umh / subme=9 / psy=1 / psy_rd=0.80:0.25 / mixed_ref=1 / me_range=32 / chroma_me=1 / trellis=0 / 8x8dct=1 / cqm=0 / deadzone=6,6 / fast_pskip=0 / chroma_qp_offset=-2 / threads=18 / lookahead_threads=1 / sliced_threads=0 / nr=0 / decimate=0 / interlaced=0 / bluray_compat=0 / constrained_intra=0 / bframes=3 / b_pyramid=0 / b_adapt=2 / b_bias=0 / direct=1 / weightb=0 / open_gop=0 / weightp=0 / keyint=240 / keyint_min=24 / scenecut=40 / intra_refresh=0 / rc_lookahead=40 / rc=2pass / mbtree=1 / bitrate=7000 / ratetol=1.0 / qcomp=0.80 / qpmin=0 / qpmax=69 / qpstep=4 / cplxblur=20.0 / qblur=0.5 / vbv_maxrate=9500 / vbv_bufsize=9500 / nal_hrd=none / ip_ratio=1.10 / aq=1:0.50
    Язык : English
    Дата кодирования : UTC 2016-04-23 06:53:44
    Дата пометки : UTC 2016-04-23 06:54:04
    Цветовой диапазон : Limited
    Основные цвета : BT.709
    Характеристики трансфера : BT.709
    Коэффициенты матрицы : BT.709
    Menus : 11,12
    Видео #2
    Идентификатор : 12
    Формат : JPEG
    Идентификатор кодека : jpeg
    Продолжительность : 1 ч. 56 м.
    Вид битрейта : Переменный
    Битрейт : 345 бит/сек
    Ширина : 640 пикселей
    Высота : 348 пикселей
    Соотношение сторон : 1,85:1
    Режим частоты кадров : Постоянный
    Частота кадров : 0,001 кадр/сек
    Цветовое пространство : YUV
    Субдискретизация насыщенности : 4:2:0
    Битовая глубина : 8 бит
    Метод сжатия : С потерями
    Бит/(Пиксели*Кадры) : 1.549
    Размер потока : 337 Кбайт (0%)
    Заголовок : Chapter Images
    Язык : English
    Default : Нет
    Дата кодирования : UTC 2016-04-23 10:51:19
    Дата пометки : UTC 2016-04-23 10:51:20
    Menu For : 1
    Аудио #1
    Идентификатор : 2
    Формат : AAC
    Формат/Информация : Advanced Audio Codec
    Профиль формата : LC
    Идентификатор кодека : 40
    Продолжительность : 1 ч. 56 м.
    Вид битрейта : Переменный
    Битрейт : 164 Кбит/сек
    Максимальный битрейт : 237 Кбит/сек
    Каналы : 2 канала
    Расположение каналов : Front: L R
    Частота : 48,0 КГц
    Частота кадров : 46,875 кадров/сек (1024 spf)
    Метод сжатия : С потерями
    Размер потока : 137 Мбайт (2%)
    Заголовок : Russian DVO Stereo
    Язык : Russian
    Default : Да
    Alternate group : 1
    Дата кодирования : UTC 2016-04-23 06:53:44
    Дата пометки : UTC 2016-04-23 06:54:09
    Fallback From : 6
    Menus : 11
    Аудио #2
    Идентификатор : 3
    Формат : AAC
    Формат/Информация : Advanced Audio Codec
    Профиль формата : LC
    Идентификатор кодека : 40
    Продолжительность : 1 ч. 56 м.
    Вид битрейта : Переменный
    Битрейт : 162 Кбит/сек
    Максимальный битрейт : 274 Кбит/сек
    Каналы : 2 канала
    Расположение каналов : Front: L R
    Частота : 48,0 КГц
    Частота кадров : 46,875 кадров/сек (1024 spf)
    Метод сжатия : С потерями
    Размер потока : 135 Мбайт (2%)
    Заголовок : Russian AVO P.Kartsev Stereo
    Язык : Russian
    Default : Нет
    Alternate group : 1
    Дата кодирования : UTC 2016-04-23 06:53:44
    Дата пометки : UTC 2016-04-23 06:54:09
    Fallback From : 7
    Аудио #3
    Идентификатор : 4
    Формат : AAC
    Формат/Информация : Advanced Audio Codec
    Профиль формата : LC
    Идентификатор кодека : 40
    Продолжительность : 1 ч. 56 м.
    Вид битрейта : Переменный
    Битрейт : 159 Кбит/сек
    Максимальный битрейт : 232 Кбит/сек
    Каналы : 2 канала
    Расположение каналов : Front: L R
    Частота : 48,0 КГц
    Частота кадров : 46,875 кадров/сек (1024 spf)
    Метод сжатия : С потерями
    Размер потока : 133 Мбайт (2%)
    Заголовок : Ukrainian DVO TBi Stereo
    Язык : Ukrainian
    Default : Нет
    Alternate group : 1
    Дата кодирования : UTC 2016-04-23 06:53:44
    Дата пометки : UTC 2016-04-23 06:54:09
    Аудио #4
    Идентификатор : 5
    Формат : AAC
    Формат/Информация : Advanced Audio Codec
    Профиль формата : LC
    Идентификатор кодека : 40
    Продолжительность : 1 ч. 56 м.
    Вид битрейта : Переменный
    Битрейт : 163 Кбит/сек
    Максимальный битрейт : 272 Кбит/сек
    Каналы : 2 канала
    Расположение каналов : Front: L R
    Частота : 48,0 КГц
    Частота кадров : 46,875 кадров/сек (1024 spf)
    Метод сжатия : С потерями
    Размер потока : 136 Мбайт (2%)
    Заголовок : English Stereo
    Язык : English
    Default : Нет
    Alternate group : 1
    Дата кодирования : UTC 2016-04-23 06:53:44
    Дата пометки : UTC 2016-04-23 06:54:09
    Fallback From : 8
    Аудио #5
    Идентификатор : 6
    Формат : AC-3
    Формат/Информация : Audio Coding 3
    Расширение режима : CM (complete main)
    Параметр Endianness формата : Big
    Идентификатор кодека : ac-3
    Продолжительность : 1 ч. 56 м.
    Вид битрейта : Постоянный
    Битрейт : 384 Кбит/сек
    Каналы : 6 каналов
    Расположение каналов : Front: L C R, Side: L R, LFE
    Частота : 48,0 КГц
    Частота кадров : 31,250 кадров/сек (1536 spf)
    Битовая глубина : 16 бит
    Метод сжатия : С потерями
    Размер потока : 321 Мбайт (4%)
    Заголовок : Russian DVO DD 5.1
    Язык : Russian
    Default : Inherited From: 2
    Alternate group : 1
    Дата кодирования : UTC 2016-04-23 06:53:44
    Дата пометки : UTC 2016-04-23 06:54:02
    Fallback To : 2
    Аудио #6
    Идентификатор : 7
    Формат : AC-3
    Формат/Информация : Audio Coding 3
    Расширение режима : CM (complete main)
    Параметр Endianness формата : Big
    Идентификатор кодека : ac-3
    Продолжительность : 1 ч. 56 м.
    Вид битрейта : Постоянный
    Битрейт : 640 Кбит/сек
    Каналы : 6 каналов
    Расположение каналов : Front: L C R, Side: L R, LFE
    Частота : 48,0 КГц
    Частота кадров : 31,250 кадров/сек (1536 spf)
    Битовая глубина : 16 бит
    Метод сжатия : С потерями
    Размер потока : 535 Мбайт (7%)
    Заголовок : Russian AVO P.Kartsev DD 5.1
    Язык : Russian
    Default : Нет
    Alternate group : 1
    Дата кодирования : UTC 2016-04-23 06:53:44
    Дата пометки : UTC 2016-04-23 06:54:02
    Fallback To : 3
    Аудио #7
    Идентификатор : 8
    Формат : AC-3
    Формат/Информация : Audio Coding 3
    Расширение режима : CM (complete main)
    Параметр Endianness формата : Big
    Идентификатор кодека : ac-3
    Продолжительность : 1 ч. 56 м.
    Вид битрейта : Постоянный
    Битрейт : 640 Кбит/сек
    Каналы : 6 каналов
    Расположение каналов : Front: L C R, Side: L R, LFE
    Частота : 48,0 КГц
    Частота кадров : 31,250 кадров/сек (1536 spf)
    Битовая глубина : 16 бит
    Метод сжатия : С потерями
    Размер потока : 535 Мбайт (7%)
    Заголовок : English DD 5.1
    Язык : English
    Default : Нет
    Alternate group : 1
    Дата кодирования : UTC 2016-04-23 06:53:44
    Дата пометки : UTC 2016-04-23 06:54:02
    Fallback To : 5
    Текст #1
    Идентификатор : 9
    Формат : Timed Text
    Режим смешивания : sbtl
    Идентификатор кодека : tx3g
    Продолжительность : 1 ч. 51 м.
    Вид битрейта : Переменный
    Битрейт : 67 бит/сек
    Размер потока : 54,7 Кбайт (0%)
    Заголовок : Russian Subtitle
    Язык : Russian
    Default : Да
    Forced : Нет
    Alternate group : 2
    Дата кодирования : UTC 2016-04-23 10:51:15
    Дата пометки : UTC 2016-04-23 10:51:15
    Текст #2
    Идентификатор : 10
    Формат : Timed Text
    Режим смешивания : sbtl
    Идентификатор кодека : tx3g
    Продолжительность : 1 ч. 51 м.
    Вид битрейта : Переменный
    Битрейт : 43 бит/сек
    Размер потока : 35,5 Кбайт (0%)
    Заголовок : English Subtitle
    Язык : English
    Default : Нет
    Forced : Нет
    Alternate group : 2
    Дата кодирования : UTC 2016-04-23 10:51:15
    Дата пометки : UTC 2016-04-23 10:51:15
    Меню #1
    00:00:00.000 : 1
    00:09:55.094 : 2
    00:23:30.534 : 3
    00:41:35.534 : 4
    00:56:45.652 : 5
    01:09:40.091 : 6
    01:25:04.099 : 7
    01:36:02.297 : 8
    Меню #2
    Идентификатор : 11
    Идентификатор кодека : text
    Продолжительность : 1 ч. 56 м.
    Заголовок : Chapter Titles
    Язык : English
    Дата кодирования : UTC 2016-04-23 10:51:15
    Дата пометки : UTC 2016-04-23 10:51:15
    Вид битрейта : CBR
    Menu For : 2,1
    00:00:00.000 : 1
    00:09:55.094 : 2
    00:23:30.534 : 3
    00:41:35.534 : 4
    00:56:45.652 : 5
    01:09:40.091 : 6
    01:25:04.099 : 7
    01:36:02.297 : 8

    x264 лог 480p Release

    HandBrakeCLI -i "/UNFORGETTABLE_1996_BDREMUX_HDCLUB/BDMV/STREAM/00000.m2ts" -t 1 -o "Unforgettable.480p.eng.m4v" -f mp4 -I -O -w 640 -l 460 --crop 20:22:0:0 --custom-anamorphic --modulus 4 --pixel-aspect 852:640 -e x264 -b 1800 -2 -a none -x cabac=0:ref=2:me=umh:bframes=0:weightp=0:subq=6:8x8dct=0:trellis=0:vbv-maxrate=5000:vbv-bufsize=5000 --verbose=1
    x264 [info]: frame I:4081  Avg QP:18.04  size: 27805  PSNR Mean Y:46.19 U:49.69 V:52.22 Avg:47.18 Global:46.51
    x264 [info]: frame P:163932 Avg QP:19.85  size:  8925  PSNR Mean Y:43.66 U:47.29 V:49.90 Avg:44.67 Global:44.00
    x264 [info]: mb I  I16..4: 26.4%  0.0% 73.6%
    x264 [info]: mb P  I16..4:  1.2%  0.0%  2.9%  P16..4: 50.4% 23.9%  9.3%  0.0%  0.0%    skip:12.2%
    x264 [info]: coded y,uvDC,uvAC intra: 76.5% 80.7% 55.4% inter: 32.8% 28.9% 4.1%
    x264 [info]: i16 v,h,dc,p: 50% 10%  9% 31%
    x264 [info]: i4 v,h,dc,ddl,ddr,vr,hd,vl,hu: 29% 13% 18%  7%  7%  9%  5%  7%  4%
    x264 [info]: i8c dc,h,v,p: 50% 14% 28%  8%
    x264 [info]: ref P L0: 68.8% 31.2%
    x264 [info]: SSIM Mean Y:0.9727777 (15.651db)
    x264 [info]: PSNR Mean Y:43.723 U:47.347 V:49.952 Avg:44.727 Global:44.051 kb/s:1799.86

    x264 лог 720p Release

    HandBrakeCLI -i "/UNFORGETTABLE_1996_BDREMUX_HDCLUB/BDMV/STREAM/00000.m2ts" -t 1 -o "Unforgettable.720p.eng.m4v" -f mp4 -4 -O -w 1280 -l 696 --crop 20:22:0:0 --modulus 8 -e x264 -b 7000 -2 -a none -x cabac=0:ref=3:me=umh:b-pyramid=none:b-adapt=2:weightb=0:trellis=0:weightp=0:vbv-maxrate=9500:vbv-bufsize=9500:subq=9:merange=32:deblock=-3,-2:qcomp=0.80:qpmin=0:qpmax=69:fast_pskip=0:aq-strength=0.5:no-dct-decimate=1:psy-rd=0.80,0.25:ipratio=1.1:pbratio=1.1:deadzone-inter=6:deadzone-intra=6 --verbose=1
    x264 [info]: frame I:1578  Avg QP:20.47  size: 83076  PSNR Mean Y:45.26 U:48.58 V:51.47 Avg:46.26 Global:45.79
    x264 [info]: frame P:52852 Avg QP:21.22  size: 54667  PSNR Mean Y:44.85 U:48.27 V:51.17 Avg:45.85 Global:45.18
    x264 [info]: frame B:113583 Avg QP:22.32  size: 27224  PSNR Mean Y:43.43 U:47.57 V:50.94 Avg:44.54 Global:43.77
    x264 [info]: consecutive B-frames:  2.3%  9.6% 38.7% 49.3%
    x264 [info]: mb I  I16..4:  9.1% 69.5% 21.4%
    x264 [info]: mb P  I16..4:  4.1% 16.7%  3.4%  P16..4: 43.2% 20.8%  7.6%  0.0%  0.0%    skip: 4.1%
    x264 [info]: mb B  I16..4:  0.5%  2.9%  0.5%  B16..8: 32.4% 11.0%  1.5%  direct:12.7%  skip:38.5%  L0:37.4% L1:36.9% BI:25.6%
    x264 [info]: 8x8 transform intra:70.0% inter:44.8%
    x264 [info]: coded y,uvDC,uvAC intra: 83.7% 67.4% 31.5% inter: 48.4% 23.7% 5.7%
    x264 [info]: i16 v,h,dc,p: 46% 12% 10% 32%
    x264 [info]: i8 v,h,dc,ddl,ddr,vr,hd,vl,hu: 11%  7%  7% 11% 15% 15% 13% 11% 10%
    x264 [info]: i4 v,h,dc,ddl,ddr,vr,hd,vl,hu: 15%  8%  4% 11% 16% 16% 12% 11%  8%
    x264 [info]: i8c dc,h,v,p: 49% 18% 23% 10%
    x264 [info]: ref P L0: 60.9% 25.2% 14.0%
    x264 [info]: ref B L0: 75.7% 24.3%
    x264 [info]: SSIM Mean Y:0.9673144 (14.856db)
    x264 [info]: PSNR Mean Y:43.894 U:47.797 V:51.015 Avg:44.966 Global:44.183 kb/s:6978.29

    Скриншоты 480p Release

    Скриншоты 720p Release

    Цитата:
    Цитата:

    • Сохранены оригинальные чаптеры как на Blu-ray;
    • Чистый голос П.Карцева был выкуплен в рамках сервиса от HDCLUB "Озвучивание";
    • За украинскую дорожку спасибо трекеру Hurtom.
    -

    Релиз подготовлен для просмотра на Apple TV, iPad, iPhone, iPod Touch.
    Для просмотра данного релиза на компьютере с ОС Windows рекомендуется использовать VLC media player
    Скачать .torrent

    Скачать торрент-файл бесплатно и на максимальной скорости!

    Как скачивать? · Что такое торрент? · Рейтинг и ограничения

    !ВНИМАНИЕ!
    Сайт не распространяет и не хранит электронные версии произведений, а занимается лишь лишь предоставлением доступа к создаваемому пользователями каталогу ссылок на торрент-файлы, которые содержат только списки хеш-сумм, убедительная просьба с жалобами обращаться напрямую к пользователю. Файлы для обмена на трекере предоставлены пользователями сайта, и администрация не несёт ответственности за их содержание. Просьба не заливать файлы, защищенные авторскими правами, а также файлы нелегального содержания!


    _________________
    [Профиль] [ЛС]
    Показать сообщения:    
    Ответить на тему

    Текущее время: Сегодня, в 06:15

    Часовой пояс: GMT + 2



    Вы не можете начинать темы
    Вы не можете отвечать на сообщения
    Вы не можете редактировать свои сообщения
    Вы не можете удалять свои сообщения
    Вы не можете голосовать в опросах
    Вы не можете прикреплять файлы к сообщениям
    Вы не можете скачивать файлы