BitTorrentTracker PerecTracker.org
BitTorrentTracker PerecTracker.org
    
Регистрация  ·  Вход
 
 · 
Забыли пароль?

  • Три девятки / Triple 9 (Джон Хиллкоут / John Hillcoat) [2016, США, Криминал, драма, триллер, WEB-DLRip] Dub (iTunes)

    Ответить на тему
     
    Автор Сообщение

    rechyn

    Создавать темы 02-Май-2016 15:42

           

    [Цитировать]

    Три девятки / Triple 9«Законы улицы не делятся на черные и белые»Страна: США / Anonymous Content
    Жанр: комедия
    Год выпуска: 2016
    Продолжительность: 01:50:34
    Перевод: Профессиональный (полное дублирование) (iTunes)
    Cубтитры: нет
    Оригинальная аудиодорожка: нет
    Режиссер: Джон Хиллкоут / John Hillcoat
    В ролях: Аарон Пол, Кейт Уинслет, Вуди Харрельсон, Кейси Аффлек, Энтони Маки, Чиветел Эджиофор, Галь Гадот, Норман Ридус, Тереза Палмер, Майкл Кеннет Уильямс, Клифтон Коллинз мл., Мишель Энг, Терренс Розмор, Терри Эбни, Александр Бабара, Энтони Белевцов, Луис Да Силва мл., Йен Касселберри, Э. Роджер Митчелл, Блейк МакЛеннан
    Описание: Банда преступников и коррумпированных копов планирует убить полицейского, чтобы провернуть ограбление на другом конце города.
    Группа
    желает всем приятного просмотра!Качество видео: WEB-DLRip / WEB-DL (1080p)
    Формат видео: AVI
    Видео: 640x272 (2.35:1), 25 fps, XviD build 65 ~807 kbps avg, 0.19 bit/pixel
    Audio: 48 kHz, MPEG Layer 3, 2 ch, ~128.00 kbps avg
    MediaInfo
    General
    Complete name : D:\Торренты\Triple 9_Drek_Rutracker.org.avi
    Format : AVI
    Format/Info : Audio Video Interleave
    File size : 746 MiB
    Duration : 1h 50mn
    Overall bit rate : 944 Kbps
    Writing application : VirtualDubMod 1.5.10.2 (build 2540/release)
    Writing library : VirtualDubMod build 2540/release
    Video
    ID : 0
    Format : MPEG-4 Visual
    Format profile : Advanced Simple@L5
    Format settings, BVOP : 1
    Format settings, QPel : No
    Format settings, GMC : No warppoints
    Format settings, Matrix : Custom
    Codec ID : XVID
    Codec ID/Hint : XviD
    Duration : 1h 50mn
    Bit rate : 807 Kbps
    Width : 640 pixels
    Height : 272 pixels
    Display aspect ratio : 2.35:1
    Frame rate : 25.000 fps
    Color space : YUV
    Chroma subsampling : 4:2:0
    Bit depth : 8 bits
    Scan type : Progressive
    Compression mode : Lossy
    Bits/(Pixel*Frame) : 0.185
    Stream size : 637 MiB (85%)
    Writing library : XviD 65
    Audio
    ID : 1
    Format : MPEG Audio
    Format version : Version 1
    Format profile : Layer 3
    Mode : Joint stereo
    Mode extension : MS Stereo
    Codec ID : 55
    Codec ID/Hint : MP3
    Duration : 1h 50mn
    Bit rate mode : Constant
    Bit rate : 128 Kbps
    Channel(s) : 2 channels
    Sampling rate : 48.0 KHz
    Compression mode : Lossy
    Stream size : 101 MiB (14%)
    Alignment : Aligned on interleaves
    Interleave, duration : 40 ms (1.00 video frame)
    Interleave, preload duratio : 504 ms
    Writing library : LAME3.99r
    Encoding settings : -m j -V 4 -q 2 -lowpass 17 -b 128
    Скриншоты
    Скачать .torrent

    Скачать торрент-файл бесплатно и на максимальной скорости!

    Как скачивать? · Что такое торрент? · Рейтинг и ограничения

    !ВНИМАНИЕ!
    Сайт не распространяет и не хранит электронные версии произведений, а занимается лишь лишь предоставлением доступа к создаваемому пользователями каталогу ссылок на торрент-файлы, которые содержат только списки хеш-сумм, убедительная просьба с жалобами обращаться напрямую к пользователю. Файлы для обмена на трекере предоставлены пользователями сайта, и администрация не несёт ответственности за их содержание. Просьба не заливать файлы, защищенные авторскими правами, а также файлы нелегального содержания!


    _________________
    [Профиль] [ЛС]
    Показать сообщения:    
    Ответить на тему

    Текущее время: Сегодня, в 16:04

    Часовой пояс: GMT + 2



    Вы не можете начинать темы
    Вы не можете отвечать на сообщения
    Вы не можете редактировать свои сообщения
    Вы не можете удалять свои сообщения
    Вы не можете голосовать в опросах
    Вы не можете прикреплять файлы к сообщениям
    Вы не можете скачивать файлы