BitTorrentTracker PerecTracker.org
BitTorrentTracker PerecTracker.org
    
Регистрация  ·  Вход
 
 · 
Забыли пароль?

  • Игра престолов / Game of Thrones (Сезон 6, Серия 1-10 из 10) (Алан Тейлор, Даниэль Минахан) [2016, Фэнтези, приключения, экранизация , HDTV 400р ] [DD5.1] [MVO] [Amedia,LostFilm,BaibaKo,AlexFilm, FOX,FocusStudiо,NewStudio,UATEAM + Subs Rus,Ukr,ENG]

    Ответить на тему
     
    Автор Сообщение

    Враг Нароода

    Создавать темы 02-Май-2016 09:38

           

    [Цитировать]

    ----Игра престолов / Game of Thrones Сезон 6, Серия 1-10 из 10------Год выпуска: 2016
    Выпущено:США, Великобритания, Bighead Littlehead, Created B
    Жанр: Фэнтези, драма, приключения, экранизация
    Продолжительность: 00:55:00
    Сезон: 6
    Серия: 1-10
    Количество серий в сезоне: 10
    Озвучка 1: Профессиональный многоголосый,Дубляж -Amedia-Русский
    Озвучка 2: Профессиональный многоголосый - LostFilm-Русский
    Озвучка 3: Профессиональный многоголосый - BaibaKo-Русский
    Озвучка 4: Профессиональный многоголосый -AlexFilm-Русский
    Озвучка 5: Профессиональный многоголосый - FOX-Русский
    Озвучка 6: Профессиональный многоголосый - FocusStudiо-Русский
    Озвучка 7: Профессиональный многоголосый -NewStudio-Русский
    Озвучка 8: Профессиональный многоголосый -UATEAM-Украинский
    Озвучка 9: Профессиональный многоголосый -Английский -Оригинал
    Субтитры: Русские (Forsed (стилизованные by messafan), Полные (Амедиа, 7kingdoms, Opel & Volverine73),Украинские,Английские
    --Сайт сериала:
    --Режиссер: Алан Тейлор, Даниэль Минахан, Дэвид Наттер--В ролях:Лина Хиди, Питер Динклэйдж, Мишель Фэйрли, Эмилия Кларк, Кит Харингтон, Николай Костер-Валдау, Иэн Глен, Эйден Гиллен, Элфи Оуэн-Аллен, Мэйси Уильямс, Софи Тёрнер, Джек Глисон, Айзек Хемпстед-Райт, Ричард Мэдден, Джером Флинн, Конлет Хилл, Дональд Самптер, Рори МакКанн, Амрита Ачария, Чарльз Дэнс, Джон Брэдли, Кристиан Нэйрн, Сибель Кекилли, Джеймс Космо, Стивен Диллэйн, Гетин Энтони, Гвендолин Кристи, Натали Дормер, Уна Чаплин--О сериале "Игра престолов"
    К концу подходит время благоденствия, и лето, длившееся несколько десятилетий, угасает. Вокруг средоточия власти Семи королевств, Железного трона, зреет заговор, и в это непростое время король решает искать поддержки у друга юности Эддарда Старка (Шон Бин). В мире, где все — от короля до наемника — рвутся к власти, плетут интриги и готовы вонзить нож в спину, есть место и благородству, состраданию и любви. Между тем, никто не замечает пробуждение тьмы из легенд далеко на Севере — и лишь Стена защищает живых к югу от нее.
    Между древней ледяной Стеной и пламенем навсегда ушедших из мира драконов разворачивается «Игра престолов» — долгожданная экранизация культовой саги Джорджа Р. Р. Мартина «Песнь льда и пламени».
    ----Качество : HDTV 400р
    Формат: MKV
    Видео кодек: H264
    Видео: 3084Кбит/сек,720х400(16.9),в в 25.000кадр/сек,AVC(Baseline@L3)(1 Ref Frames)
    Аудио Кодек:AC3
    [Аудио #1:AC3 , 640 Kbps, 48.0 KHz, 6 ch- -Amedia-Русский
    Аудио #2:AC3 , 384 Kbps, 48.0 KHz, 6 ch- -LostFilm-Русский
    Аудио #3: AC3, 384 Kbps, 48.0 KHz, 6 ch - BaibaKo-Русский
    Аудио #4: AC3, 384 Kbps, 48.0 KHz, 6 ch - AlexFilm-Русский
    Аудио #5: AC3, 384 Kbps, 48.0 KHz, 6 ch - FOX-Русский
    Аудио #6: AC3, 384 Kbps, 48.0 KHz, 6 ch - NewStudio-Русский
    Аудио #7: AC3, 384 Kbps, 48.0 KHz, 6 ch - FocusStudiо-Русский
    Аудио #8: AC3, 384 Kbps, 48.0 KHz,6 ch - -UATEAM-Ukrainian-Украинский
    Аудио #9: AC3, 384 Kbps, 48.0 KHz,6 ch - - English-Английский -Оригинал--

    Доп. информация:

    Звуковая дорожка сделана путем наложения чистого голоса озвучивателей на центральный канал оригинальной дорожки. Качество идентично звуковой дорожке.
    --

    Список эпизодов сезона


    01 Красная женщина (The Red Woman)
    02 Дом (Home)
    03 Нарушивший клятву (Oathbreaker)
    04 Книга Неведомого (Book of the Stranger)
    05 Дверь (The Door)
    06 Кровь моей крови (Blood of My Blood)
    07 Сломленный человек (The Broken Man)
    08 Никто (No One)
    09 Битва бастардов (Battle of the Bastards)
    10 Ветра зимы (The Winds of Winter)
    --

    MediaInfo СЕЗОНА

    Общее
    Уникальный идентификатор : 179494102404647988636213940001276020197 (0x87094E81AD1C99DA85DF9CC8C83DC5E5)
    Полное имя : D:\ИГРА ПРЕСТ ЛОВ\Game_of_Thrones_2016_S06_[BaibaKo_Kravec_AlexFilm_LostFilm_FOX_ FocusStudio_NewStudio_UAteam]_DD5.1_N.B_HDTV_400р_Rus_Ukr_Eng\Game_of_Thrones_2016_S06E01_DD5.1_N.B_HDTV_400р_7хRus_Ukr_Eng.mkv
    Формат : Matroska
    Версия формата : Version 4 / Version 2
    Размер файла : 2,40 Гбайт
    Продолжительность : 50 м.
    Режим общего битрейта : Переменный
    Общий поток : 6797 Кбит/сек
    Название фильма : Game_of_Thrones_2016_S06E01_DD5.1_N.B_HDTV_400р_7хRus_Ukr_Eng
    Дата кодирования : UTC 2016-07-12 16:58:07
    Программа кодирования : mkvmerge v9.2.0 ('Photograph') 64bit
    Библиотека кодирования : libebml v1.3.3 + libmatroska v1.4.4
    Attachments : HelveticaNeueLTW1G-Md_0.ttf
    Видео
    Идентификатор : 1
    Формат : AVC
    Формат/Информация : Advanced Video Codec
    Профиль формата : Baseline@L3
    Параметр CABAC формата : Нет
    Параметр ReFrames формата : 1 кадр
    Параметр GOP формата : M=1, N=12
    Идентификатор кодека : V_MPEG4/ISO/AVC
    Продолжительность : 50 м.
    Вид битрейта : Переменный
    Битрейт : 3084 Кбит/сек
    Максимальный битрейт : 4500 Кбит/сек
    Ширина : 720 пикселей
    Высота : 400 пикселей
    Соотношение сторон : 16:9
    Режим частоты кадров : Постоянный
    Частота кадров : 25,000 кадров/сек
    Частота кадров в оригинале : 24,000 кадра/сек
    Цветовое пространство : YUV
    Субдискретизация насыщенности : 4:2:0
    Битовая глубина : 8 бит
    Тип развёртки : Прогрессивная
    Бит/(Пиксели*Кадры) : 0.428
    Размер потока : 1,09 Гбайт (45%)
    Заголовок : Game_of_Thrones_2016_S06E01_DD5.1_N.B_HDTV_400р_7хRus_Ukr_Eng
    Язык : English
    Default : Да
    Forced : Нет
    Аудио #1
    Идентификатор : 9
    Формат : AC-3
    Формат/Информация : Audio Coding 3
    Расширение режима : CM (complete main)
    Параметр Endianness формата : Big
    Идентификатор кодека : A_AC3
    Продолжительность : 50 м.
    Вид битрейта : Постоянный
    Битрейт : 384 Кбит/сек
    Каналы : 6 каналов
    Расположение каналов : Front: L C R, Side: L R, LFE
    Частота : 48,0 КГц
    Частота кадров : 31,250 кадров/сек (1536 spf)
    Метод сжатия : С потерями
    Задержка видео : 11 мс.
    Размер потока : 139 Мбайт (6%)
    Заголовок : MVO BaibaKo DD5.1@384kbps
    Язык : Russian
    Default : Да
    Forced : Нет
    Аудио #2
    Идентификатор : 10
    Формат : AC-3
    Формат/Информация : Audio Coding 3
    Расширение режима : CM (complete main)
    Параметр Endianness формата : Big
    Идентификатор кодека : A_AC3
    Продолжительность : 50 м.
    Вид битрейта : Постоянный
    Битрейт : 640 Кбит/сек
    Каналы : 6 каналов
    Расположение каналов : Front: L C R, Side: L R, LFE
    Частота : 48,0 КГц
    Частота кадров : 31,250 кадров/сек (1536 spf)
    Метод сжатия : С потерями
    Задержка видео : 17 мс.
    Размер потока : 231 Мбайт (9%)
    Заголовок : MVO Kravec DUB DD5.1@640kbps
    Язык : Russian
    Default : Нет
    Forced : Нет
    Аудио #3
    Идентификатор : 11
    Формат : AC-3
    Формат/Информация : Audio Coding 3
    Расширение режима : CM (complete main)
    Параметр Endianness формата : Big
    Идентификатор кодека : A_AC3
    Продолжительность : 50 м.
    Вид битрейта : Постоянный
    Битрейт : 384 Кбит/сек
    Каналы : 6 каналов
    Расположение каналов : Front: L C R, Side: L R, LFE
    Частота : 48,0 КГц
    Частота кадров : 31,250 кадров/сек (1536 spf)
    Метод сжатия : С потерями
    Задержка видео : 17 мс.
    Размер потока : 139 Мбайт (6%)
    Заголовок : MVO AlexFilm DD5.1@384kbps
    Язык : Russian
    Default : Нет
    Forced : Нет
    Аудио #4
    Идентификатор : 12
    Формат : AC-3
    Формат/Информация : Audio Coding 3
    Расширение режима : CM (complete main)
    Параметр Endianness формата : Big
    Идентификатор кодека : A_AC3
    Продолжительность : 50 м.
    Вид битрейта : Постоянный
    Битрейт : 384 Кбит/сек
    Каналы : 6 каналов
    Расположение каналов : Front: L C R, Side: L R, LFE
    Частота : 48,0 КГц
    Частота кадров : 31,250 кадров/сек (1536 spf)
    Метод сжатия : С потерями
    Задержка видео : 17 мс.
    Размер потока : 139 Мбайт (6%)
    Заголовок : MVO LostFilm DD5.1@384kbps
    Язык : Russian
    Default : Нет
    Forced : Нет
    Аудио #5
    Идентификатор : 13
    Формат : AC-3
    Формат/Информация : Audio Coding 3
    Расширение режима : CM (complete main)
    Параметр Endianness формата : Big
    Идентификатор кодека : A_AC3
    Продолжительность : 50 м.
    Вид битрейта : Постоянный
    Битрейт : 384 Кбит/сек
    Каналы : 6 каналов
    Расположение каналов : Front: L C R, Side: L R, LFE
    Частота : 48,0 КГц
    Частота кадров : 31,250 кадров/сек (1536 spf)
    Метод сжатия : С потерями
    Размер потока : 137 Мбайт (6%)
    Заголовок : MVO NewStudio DD5.1@384kbps
    Язык : Russian
    Default : Нет
    Forced : Нет
    Аудио #6
    Идентификатор : 14
    Формат : AC-3
    Формат/Информация : Audio Coding 3
    Расширение режима : CM (complete main)
    Параметр Endianness формата : Big
    Идентификатор кодека : A_AC3
    Продолжительность : 50 м.
    Вид битрейта : Постоянный
    Битрейт : 384 Кбит/сек
    Каналы : 6 каналов
    Расположение каналов : Front: L C R, Side: L R, LFE
    Частота : 48,0 КГц
    Частота кадров : 31,250 кадров/сек (1536 spf)
    Метод сжатия : С потерями
    Задержка видео : 17 мс.
    Размер потока : 139 Мбайт (6%)
    Заголовок : MVO FOX DD5.1@384kbps
    Язык : Russian
    Default : Нет
    Forced : Нет
    Аудио #7
    Идентификатор : 15
    Формат : AC-3
    Формат/Информация : Audio Coding 3
    Расширение режима : CM (complete main)
    Параметр Endianness формата : Big
    Идентификатор кодека : A_AC3
    Продолжительность : 50 м.
    Вид битрейта : Постоянный
    Битрейт : 384 Кбит/сек
    Каналы : 6 каналов
    Расположение каналов : Front: L C R, Side: L R, LFE
    Частота : 48,0 КГц
    Частота кадров : 31,250 кадров/сек (1536 spf)
    Метод сжатия : С потерями
    Задержка видео : 17 мс.
    Размер потока : 139 Мбайт (6%)
    Заголовок : MVO FocusStudio DD5.1@384kbps
    Язык : Russian
    Default : Нет
    Forced : Нет
    Аудио #8
    Идентификатор : 16
    Формат : AC-3
    Формат/Информация : Audio Coding 3
    Расширение режима : CM (complete main)
    Параметр Endianness формата : Big
    Идентификатор кодека : A_AC3
    Продолжительность : 50 м.
    Вид битрейта : Постоянный
    Битрейт : 384 Кбит/сек
    Каналы : 6 каналов
    Расположение каналов : Front: L C R, Side: L R, LFE
    Частота : 48,0 КГц
    Частота кадров : 31,250 кадров/сек (1536 spf)
    Метод сжатия : С потерями
    Задержка видео : 17 мс.
    Размер потока : 139 Мбайт (6%)
    Заголовок : Ukr MVO Omikron DD5.1@384kbps
    Язык : Ukrainian
    Default : Нет
    Forced : Нет
    Аудио #9
    Идентификатор : 17
    Формат : AC-3
    Формат/Информация : Audio Coding 3
    Расширение режима : CM (complete main)
    Параметр Endianness формата : Big
    Идентификатор кодека : A_AC3
    Продолжительность : 50 м.
    Вид битрейта : Постоянный
    Битрейт : 384 Кбит/сек
    Каналы : 2 канала
    Расположение каналов : Front: L R
    Частота : 48,0 КГц
    Частота кадров : 31,250 кадров/сек (1536 spf)
    Метод сжатия : С потерями
    Задержка видео : 17 мс.
    Размер потока : 139 Мбайт (6%)
    Заголовок : Original DD5.1@384kbps
    Язык : English
    Default : Нет
    Forced : Нет
    Текст #1
    Идентификатор : 2
    Формат : ASS
    Идентификатор кодека : S_TEXT/ASS
    Идентификатор кодека/Информация : Advanced Sub Station Alpha
    Продолжительность : 11 м.
    Битрейт : 101 бит/сек
    Count of elements : 88
    Метод сжатия : Без потерь
    Размер потока : 8,54 Кбайт (0%)
    Заголовок : Forced by messafan
    Язык : Russian
    Default : Да
    Forced : Да
    Текст #2
    Идентификатор : 3
    Формат : UTF-8
    Идентификатор кодека : S_TEXT/UTF8
    Идентификатор кодека/Информация : UTF-8 Plain Text
    Продолжительность : 11 м.
    Битрейт : 55 бит/сек
    Count of elements : 88
    Размер потока : 4,65 Кбайт (0%)
    Заголовок : Forced simple
    Язык : Russian
    Default : Нет
    Forced : Нет
    Текст #3
    Идентификатор : 4
    Формат : UTF-8
    Идентификатор кодека : S_TEXT/UTF8
    Идентификатор кодека/Информация : UTF-8 Plain Text
    Продолжительность : 42 м.
    Битрейт : 73 бит/сек
    Count of elements : 495
    Размер потока : 22,7 Кбайт (0%)
    Заголовок : Rus full [Amedia]
    Язык : Russian
    Default : Нет
    Forced : Нет
    Текст #4
    Идентификатор : 5
    Формат : UTF-8
    Идентификатор кодека : S_TEXT/UTF8
    Идентификатор кодека/Информация : UTF-8 Plain Text
    Продолжительность : 47 м.
    Битрейт : 71 бит/сек
    Count of elements : 462
    Размер потока : 24,8 Кбайт (0%)
    Заголовок : Rus full [7kingdoms]
    Язык : Russian
    Default : Нет
    Forced : Нет
    Текст #5
    Идентификатор : 6
    Формат : UTF-8
    Идентификатор кодека : S_TEXT/UTF8
    Идентификатор кодека/Информация : UTF-8 Plain Text
    Продолжительность : 47 м.
    Битрейт : 78 бит/сек
    Count of elements : 461
    Размер потока : 27,1 Кбайт (0%)
    Заголовок : Rus Full [Opel & Volverine73]
    Язык : Russian
    Default : Нет
    Forced : Нет
    Текст #6
    Идентификатор : 7
    Формат : UTF-8
    Идентификатор кодека : S_TEXT/UTF8
    Идентификатор кодека/Информация : UTF-8 Plain Text
    Продолжительность : 48 м.
    Битрейт : 70 бит/сек
    Count of elements : 466
    Размер потока : 25,1 Кбайт (0%)
    Заголовок : Rus
    Язык : Russian
    Default : Нет
    Forced : Нет
    Текст #7
    Идентификатор : 8
    Формат : UTF-8
    Идентификатор кодека : S_TEXT/UTF8
    Идентификатор кодека/Информация : UTF-8 Plain Text
    Продолжительность : 42 м.
    Битрейт : 37 бит/сек
    Count of elements : 382
    Размер потока : 11,8 Кбайт (0%)
    Заголовок : Eng full sub
    Язык : English
    Default : Нет
    Forced : Нет
    --

    Скриншоты

    ----Внимание! В сериале присутствуют сцены с обнаженной натурой!-- Внимание! Раздача ведётся путём добавления новых серий!--

    Как закачать отдельный файл

    1. Открыть торрент
    2. Снять галки с тех файлов торрента, которые мы не хотим закачивать. Оставляем только на нужных нам файлах (файле).
    3. Нажать О.К.
    В клиенте utorrent
    Инструкция
    1) Открыть торрент

    2) Снять галки с тех файлов торрента, которые мы не хотим закачивать:
    * либо вручную, снимая с каждого файла галку( скрин №1)
    * либо, нажав кнопку "Снять метки (Select None)", сняв сразу со всех файлов(скрин №2)
    №1

    №2

    Оставляем только на нужных нам файлах (файле).

    3)Нажать О.К
    ------Внимание!!! 15.07. 2016. РАЗДАЧА ОБНОВЛЕНА. ФИНАЛ СЕЗОНА. ОБНОВИТЕ ТОРЕНТ ФАЙЛ.ПРИЯТНОГО ПРОСМОТРА . --Релиз от: Nikolai.Baranov & PIRATIYA --------
    Скачать .torrent

    Скачать торрент-файл бесплатно и на максимальной скорости!

    Как скачивать? · Что такое торрент? · Рейтинг и ограничения

    !ВНИМАНИЕ!
    Сайт не распространяет и не хранит электронные версии произведений, а занимается лишь лишь предоставлением доступа к создаваемому пользователями каталогу ссылок на торрент-файлы, которые содержат только списки хеш-сумм, убедительная просьба с жалобами обращаться напрямую к пользователю. Файлы для обмена на трекере предоставлены пользователями сайта, и администрация не несёт ответственности за их содержание. Просьба не заливать файлы, защищенные авторскими правами, а также файлы нелегального содержания!


    _________________

    Легко быть оптимистом, когда судьба не валит с ног тяжелыми ударами, а лишь иногда легонько шлепает по заднице.
    [Профиль] [ЛС]

    vvmalysh

    Создавать темы 15-Июл-2016 04:57 (спустя 2 месяца 12 дней)

           

    [Цитировать]

    Внимание!!! 15.07. 2016. РАЗДАЧА ОБНОВЛЕНА. ФИНАЛ СЕЗОНА. ОБНОВИТЕ ТОРЕНТ ФАЙЛ.ПРИЯТНОГО ПРОСМОТРА

    _________________

    [Профиль] [ЛС]

    -746

    Создавать темы 11-Окт-2016 14:29 (спустя 2 месяца 27 дней)

           

    Топік був перенесений з форуму Зарубежные сериалы у форум Зарубежные сериалы (HD Video)

    rechyn

    _________________
    Как бы ты высоко не летал, не забывай, с кем ты ползал..
     
    Показать сообщения:    
    Ответить на тему

    Текущее время: Сегодня, в 00:38

    Часовой пояс: GMT + 2



    Вы не можете начинать темы
    Вы не можете отвечать на сообщения
    Вы не можете редактировать свои сообщения
    Вы не можете удалять свои сообщения
    Вы не можете голосовать в опросах
    Вы не можете прикреплять файлы к сообщениям
    Вы не можете скачивать файлы