BitTorrentTracker PerecTracker.org
BitTorrentTracker PerecTracker.org
    
Регистрация  ·  Вход
 
 · 
Забыли пароль?

  • Женщина в золотом / Woman in Gold (Саймон Кертис / Simon Curtis) [2015, Великобритания, драма, история, BDRip] MVO (FocusStudio) + Original Eng/Ger + Sub Rus

    Ответить на тему
     
    Автор Сообщение

    Light

    Создавать темы 01-Май-2016 23:20

           

    [Цитировать]

    -Женщина в золотом / Woman in Gold-Год выпуска: 2015
    Страна: Великобритания
    Жанр: драма, история
    Продолжительность: 01:49:18
    Озвучание: профессиональное многоголосое закадровое (FocusStudio)
    Cубтитры: русские-Режиссер: Саймон Кертис / Simon Curtis
    В ролях: Хелен Миррен, Райан Рейнольдс, Даниэль Брюль, Кэти Холмс, Татьяна Маслани, Макс Айронс, Чарльз Дэнс, Элизабет МакГоверн, Джонатан Прайс, Антье Трауэ-Описание: История Марии Альтманн, которая пытается добиться справедливости — вернуть ценности, отобранные у ее семьи нацистами несколько десятилетий назад. Среди культурного достояния женщины известная картина Густава Климта «Портрет Адели Блох-Бауэр», которую иногда называют «Золотая Адель». Вместе с неопытным, но отважным молодым адвокатом, женщина пытается доказать свои права на наследие предков.-Релиз:
    Перевод: Анастасия Кисиленко- -Качество: BDRip (исх. BDRemux 1080p)
    Формат: AVI
    Видео: 720x304 (2.37:1), 23.976 fps, XviD ~2068 kbps avg, 0.394 bit/pixel
    Аудио Rus: AC3, 6 ch, 48 kHz, 384 kbps
    Аудио Eng/Ger: AC3, 6 ch, 48 kHz, 384 kbps-

    Скриншоты

    MediaInfo

    Format : AVI
    Format/Info : Audio Video Interleave
    Format profile : OpenDML
    File size : 2.18 GiB
    Duration : 1h 49mn
    Overall bit rate : 2 853 Kbps
    Writing application : VirtualDubMod 1.5.10.3 | www.virtualdub-fr.org || (build 2550/release)
    Writing library : VirtualDubMod build 2550/release
    Video
    ID : 0
    Format : MPEG-4 Visual
    Format profile : Advanced Simple@L5
    Format settings, BVOP : 1
    Format settings, QPel : No
    Format settings, GMC : No warppoints
    Format settings, Matrix : Default (MPEG)
    Codec ID : XVID
    Codec ID/Hint : XviD
    Duration : 1h 49mn
    Bit rate : 2 068 Kbps
    Width : 720 pixels
    Height : 304 pixels
    Display aspect ratio : 2.35:1
    Frame rate : 23.976 fps
    Color space : YUV
    Chroma subsampling : 4:2:0
    Bit depth : 8 bits
    Scan type : Progressive
    Compression mode : Lossy
    Bits/(Pixel*Frame) : 0.394
    Stream size : 1.58 GiB (72%)
    Writing library : XviD 73
    Audio #1
    ID : 1
    Format : AC-3
    Format/Info : Audio Coding 3
    Mode extension : CM (complete main)
    Format settings, Endianness : Big
    Codec ID : 2000
    Duration : 1h 49mn
    Bit rate mode : Constant
    Bit rate : 384 Kbps
    Channel(s) : 6 channels
    Channel positions : Front: L C R, Side: L R, LFE
    Sampling rate : 48.0 KHz
    Compression mode : Lossy
    Stream size : 300 MiB (13%)
    Alignment : Split accross interleaves
    Interleave, duration : 42 ms (1.00 video frame)
    Interleave, preload duration : 500 ms
    Title : Russian (FocusStudio)
    Audio #2
    ID : 2
    Format : AC-3
    Format/Info : Audio Coding 3
    Mode extension : CM (complete main)
    Format settings, Endianness : Big
    Codec ID : 2000
    Duration : 1h 49mn
    Bit rate mode : Constant
    Bit rate : 384 Kbps
    Channel(s) : 6 channels
    Channel positions : Front: L C R, Side: L R, LFE
    Sampling rate : 48.0 KHz
    Compression mode : Lossy
    Stream size : 300 MiB (13%)
    Alignment : Split accross interleaves
    Interleave, duration : 42 ms (1.00 video frame)
    Interleave, preload duration : 500 ms
    Title : English-German
    Скачать .torrent

    Скачать торрент-файл бесплатно и на максимальной скорости!

    Как скачивать? · Что такое торрент? · Рейтинг и ограничения

    !ВНИМАНИЕ!
    Сайт не распространяет и не хранит электронные версии произведений, а занимается лишь лишь предоставлением доступа к создаваемому пользователями каталогу ссылок на торрент-файлы, которые содержат только списки хеш-сумм, убедительная просьба с жалобами обращаться напрямую к пользователю. Файлы для обмена на трекере предоставлены пользователями сайта, и администрация не несёт ответственности за их содержание. Просьба не заливать файлы, защищенные авторскими правами, а также файлы нелегального содержания!


    _________________
    [Профиль] [ЛС]
    Показать сообщения:    
    Ответить на тему

    Текущее время: Сегодня, в 16:21

    Часовой пояс: GMT + 2



    Вы не можете начинать темы
    Вы не можете отвечать на сообщения
    Вы не можете редактировать свои сообщения
    Вы не можете удалять свои сообщения
    Вы не можете голосовать в опросах
    Вы не можете прикреплять файлы к сообщениям
    Вы не можете скачивать файлы