BitTorrentTracker PerecTracker.org
BitTorrentTracker PerecTracker.org
    
Регистрация  ·  Вход
 
 · 
Забыли пароль?

  • Каждому своё / Everybody Wants Some (Ричард Линклейтер / Richard Linklater) [2016, США, Комедия, WEB-DLRip] Dub (iTunes)

    Ответить на тему
     
    Автор Сообщение

    rechyn

    Создавать темы 01-Май-2016 07:00

           

    [Цитировать]

    Каждому своё / Everybody Wants Some«Here for a Good Time Not a Long Time»Страна: США, Paramount Pictures, Detour Filmproduction, Annapurna Pictures
    Жанр: комедия
    Год выпуска: 2016
    Продолжительность: 01:51:51
    Перевод: Профессиональный (полное дублирование) (iTunes)
    Cубтитры: нет
    Оригинальная аудиодорожка: нет
    Режиссер: Ричард Линклейтер / Richard Linklater
    В ролях: Блейк Дженнер, Джастон Стрит, Райан Гузман, Тайлер Хэклин, Уайатт Расселл, Глен Пауэлл, Темпл Бэйкер, Дж. Куинтон Джонсон, Уилл Бриттейн, Кортни Тейлор
    Описание: Сексуальная революция и любовь, пьяные тусовки и травка, брендовые шмотки и топовая музыка… Первокурсник Джейк получает комнату в общежитии колледжа и погружается в порочный водоворот беззаботной жизни Америки 80-х. Он впервые познает вкус свободы и взрослой жизни, пока даже не задумываясь о последствиях.
    Группа
    желает всем приятного просмотра!Качество видео: WEB-DLRip / WEB-DL (1080p)
    Формат видео: AVI
    Видео: 656x352 (1.86:1), 25 fps, XviD build 65 ~785 kbps avg, 0.14 bit/pixel
    Audio: 48 kHz, MPEG Layer 3, 2 ch, ~128.00 kbps avg
    MediaInfo
    General
    Complete name : C:\Users\Никита\Desktop\кино.avi
    Format : AVI
    Format/Info : Audio Video Interleave
    File size : 739 MiB
    Duration : 1h 51mn
    Overall bit rate : 923 Kbps
    Writing application : VirtualDubMod 1.5.10.2 (build 2540/release)
    Writing library : VirtualDubMod build 2540/release
    Video
    ID : 0
    Format : MPEG-4 Visual
    Format profile : Advanced Simple@L5
    Format settings, BVOP : 1
    Format settings, QPel : No
    Format settings, GMC : No warppoints
    Format settings, Matrix : Custom
    Codec ID : XVID
    Codec ID/Hint : XviD
    Duration : 1h 51mn
    Bit rate : 786 Kbps
    Width : 656 pixels
    Height : 352 pixels
    Display aspect ratio : 1.85:1
    Frame rate : 25.000 fps
    Color space : YUV
    Chroma subsampling : 4:2:0
    Bit depth : 8 bits
    Scan type : Progressive
    Compression mode : Lossy
    Bits/(Pixel*Frame) : 0.136
    Stream size : 629 MiB (85%)
    Writing library : XviD 65
    Audio
    ID : 1
    Format : MPEG Audio
    Format version : Version 1
    Format profile : Layer 3
    Mode : Joint stereo
    Mode extension : MS Stereo
    Codec ID : 55
    Codec ID/Hint : MP3
    Duration : 1h 51mn
    Bit rate mode : Constant
    Bit rate : 128 Kbps
    Channel(s) : 2 channels
    Sampling rate : 48.0 KHz
    Compression mode : Lossy
    Stream size : 102 MiB (14%)
    Alignment : Aligned on interleaves
    Interleave, duration : 40 ms (1.00 video frame)
    Interleave, preload duratio : 504 ms
    Writing library : LAME3.99r
    Encoding settings : -m j -V 4 -q 2 -lowpass 17 -b 128
    Скриншоты
    Скачать .torrent

    Скачать торрент-файл бесплатно и на максимальной скорости!

    Как скачивать? · Что такое торрент? · Рейтинг и ограничения

    !ВНИМАНИЕ!
    Сайт не распространяет и не хранит электронные версии произведений, а занимается лишь лишь предоставлением доступа к создаваемому пользователями каталогу ссылок на торрент-файлы, которые содержат только списки хеш-сумм, убедительная просьба с жалобами обращаться напрямую к пользователю. Файлы для обмена на трекере предоставлены пользователями сайта, и администрация не несёт ответственности за их содержание. Просьба не заливать файлы, защищенные авторскими правами, а также файлы нелегального содержания!


    _________________
    [Профиль] [ЛС]
    Показать сообщения:    
    Ответить на тему

    Текущее время: Сегодня, в 02:39

    Часовой пояс: GMT + 2



    Вы не можете начинать темы
    Вы не можете отвечать на сообщения
    Вы не можете редактировать свои сообщения
    Вы не можете удалять свои сообщения
    Вы не можете голосовать в опросах
    Вы не можете прикреплять файлы к сообщениям
    Вы не можете скачивать файлы