Register  ·  Log in
Forgot password?

  • Каждому своё / Everybody Wants Some (Ричард Линклейтер / Richard Linklater) [2016, США, Комедия, WEB-DLRip] Dub (iTunes)

    Reply to topic
    Author Message


    Post 01-May-2016 08:00



    Каждому своё / Everybody Wants Some«Here for a Good Time Not a Long Time»Страна: США, Paramount Pictures, Detour Filmproduction, Annapurna Pictures
    Жанр: комедия
    Год выпуска: 2016
    Продолжительность: 01:51:51
    Перевод: Профессиональный (полное дублирование) (iTunes)
    Cубтитры: нет
    Оригинальная аудиодорожка: нет
    Режиссер: Ричард Линклейтер / Richard Linklater
    В ролях: Блейк Дженнер, Джастон Стрит, Райан Гузман, Тайлер Хэклин, Уайатт Расселл, Глен Пауэлл, Темпл Бэйкер, Дж. Куинтон Джонсон, Уилл Бриттейн, Кортни Тейлор
    Описание: Сексуальная революция и любовь, пьяные тусовки и травка, брендовые шмотки и топовая музыка… Первокурсник Джейк получает комнату в общежитии колледжа и погружается в порочный водоворот беззаботной жизни Америки 80-х. Он впервые познает вкус свободы и взрослой жизни, пока даже не задумываясь о последствиях.
    желает всем приятного просмотра!Качество видео: WEB-DLRip / WEB-DL (1080p)
    Формат видео: AVI
    Видео: 656x352 (1.86:1), 25 fps, XviD build 65 ~785 kbps avg, 0.14 bit/pixel
    Audio: 48 kHz, MPEG Layer 3, 2 ch, ~128.00 kbps avg
    Complete name : C:\Users\Никита\Desktop\кино.avi
    Format : AVI
    Format/Info : Audio Video Interleave
    File size : 739 MiB
    Duration : 1h 51mn
    Overall bit rate : 923 Kbps
    Writing application : VirtualDubMod (build 2540/release)
    Writing library : VirtualDubMod build 2540/release
    ID : 0
    Format : MPEG-4 Visual
    Format profile : Advanced Simple@L5
    Format settings, BVOP : 1
    Format settings, QPel : No
    Format settings, GMC : No warppoints
    Format settings, Matrix : Custom
    Codec ID : XVID
    Codec ID/Hint : XviD
    Duration : 1h 51mn
    Bit rate : 786 Kbps
    Width : 656 pixels
    Height : 352 pixels
    Display aspect ratio : 1.85:1
    Frame rate : 25.000 fps
    Color space : YUV
    Chroma subsampling : 4:2:0
    Bit depth : 8 bits
    Scan type : Progressive
    Compression mode : Lossy
    Bits/(Pixel*Frame) : 0.136
    Stream size : 629 MiB (85%)
    Writing library : XviD 65
    ID : 1
    Format : MPEG Audio
    Format version : Version 1
    Format profile : Layer 3
    Mode : Joint stereo
    Mode extension : MS Stereo
    Codec ID : 55
    Codec ID/Hint : MP3
    Duration : 1h 51mn
    Bit rate mode : Constant
    Bit rate : 128 Kbps
    Channel(s) : 2 channels
    Sampling rate : 48.0 KHz
    Compression mode : Lossy
    Stream size : 102 MiB (14%)
    Alignment : Aligned on interleaves
    Interleave, duration : 40 ms (1.00 video frame)
    Interleave, preload duratio : 504 ms
    Writing library : LAME3.99r
    Encoding settings : -m j -V 4 -q 2 -lowpass 17 -b 128
    Download .torrent

    Download free and at maximum speed!

    How to Download? · What is a torrent? · Ratings and Limitations

    The site does not extend and does not store electronic(digital) versions of products, and only gives access to a reference catalogue created by users on torrent-files which contain only lists of the hash-sums, the earnest entreaty, with complaints(abuse) to access directly to the user. Files for an exchange on tracker are given by users of a site, and the administration does not bear the responsibility for their maintenance. The request to not fill in the files protected by copyrights, and also files of the illegal maintenance!

    [Profile] [PM]
    Display posts from previous:    
    Reply to topic

    The time now is: Today 10:42

    All times are GMT + 3 Hours

    You cannot post new topics in this forum
    You cannot reply to topics in this forum
    You cannot edit your posts in this forum
    You cannot delete your posts in this forum
    You cannot vote in polls in this forum
    You cannot attach files in this forum
    You cannot download files in this forum