Register  ·  Log in
Forgot password?

  • Женщина в золотом / Woman in Gold (Саймон Кертис / Simon Curtis) [2015, Великобритания, Драма, история, BDRip] MVO (FocusStudio)

    Reply to topic
    Author Message


    Post 01-May-2016 08:00



    Женщина в золотом / Woman in Gold-Год выхода: 2015
    Выпущено: Великобритания / BBC Films, Origin Pictures
    Жанр: драма, история
    Продолжительность: 01:49:17
    Перевод: Профессиональный (многоголосый закадровый) FocusStudio
    Субтитры: нет-Режиссер:
    Саймон Кертис / Simon Curtis-В ролях:
    Хелен Миррен, Райан Рейнольдс, Даниэль Брюль, Кэти Холмс, Татьяна Маслани, Макс Айронс, Чарльз Дэнс, Элизабет МакГоверн, Джонатан Прайс, Антье Трауэ-О фильме:
    История Марии Альтманн, которая пытается добиться справедливости — вернуть ценности, отобранные у ее семьи нацистами несколько десятилетий назад. Среди культурного достояния женщины известная картина Густава Климта «Портрет Адели Блох-Бауэр», которую иногда называют «Золотая Адель». Вместе с неопытным, но отважным молодым адвокатом, женщина пытается доказать свои права на наследие предков.-Релиз групп
    | | IMDB | КиноПоиск | Сэмпл |-Качество: BDRip []
    Формат: AVI
    Видео: 720x304 (2.37:1), 23.976 fps, XviD build 73 ~1508 kbps avg, 0.29 bit/pixel
    Аудио: 48 kHz, AC3 Dolby Digital, 3/2 (L,C,R,l,r) + LFE ch, ~384 kbps avg-




    Complete name                            : D:\Zhenzchina_v_zolotom_2015_BDRip_by_Dalemake.avi
    Format                                   : AVI
    Format/Info                              : Audio Video Interleave
    File size                                : 1.45 GiB
    Duration                                 : 1h 49mn
    Overall bit rate                         : 1 902 Kbps
    Writing application                      : VirtualDubMod | || (build 2550/release)
    Writing library                          : VirtualDubMod build 2550/release
    ID                                       : 0
    Format                                   : MPEG-4 Visual
    Format profile                           : Advanced Simple@L5
    Format settings, BVOP                    : 1
    Format settings, QPel                    : No
    Format settings, GMC                     : No warppoints
    Format settings, Matrix                  : Custom
    Codec ID                                 : XVID
    Codec ID/Hint                            : XviD
    Duration                                 : 1h 49mn
    Bit rate                                 : 1 509 Kbps
    Width                                    : 720 pixels
    Height                                   : 304 pixels
    Display aspect ratio                     : 2.35:1
    Frame rate                               : 23.976 (23976/1000) fps
    Color space                              : YUV
    Chroma subsampling                       : 4:2:0
    Bit depth                                : 8 bits
    Scan type                                : Progressive
    Compression mode                         : Lossy
    Bits/(Pixel*Frame)                       : 0.288
    Stream size                              : 1.15 GiB (79%)
    Writing library                          : XviD 73
    ID                                       : 1
    Format                                   : AC-3
    Format/Info                              : Audio Coding 3
    Mode extension                           : CM (complete main)
    Format settings, Endianness              : Big
    Codec ID                                 : 2000
    Duration                                 : 1h 49mn
    Bit rate mode                            : Constant
    Bit rate                                 : 384 Kbps
    Channel(s)                               : 6 channels
    Channel positions                        : Front: L C R, Side: L R, LFE
    Sampling rate                            : 48.0 KHz
    Frame rate                               : 31.250 fps (1536 spf)
    Compression mode                         : Lossy
    Stream size                              : 300 MiB (20%)
    Alignment                                : Split accross interleaves
    Interleave, duration                     : 42 ms (1.00 video frame)
    Interleave, preload duration             : 500 ms
    Download .torrent

    Download free and at maximum speed!

    How to Download? · What is a torrent? · Ratings and Limitations

    The site does not extend and does not store electronic(digital) versions of products, and only gives access to a reference catalogue created by users on torrent-files which contain only lists of the hash-sums, the earnest entreaty, with complaints(abuse) to access directly to the user. Files for an exchange on tracker are given by users of a site, and the administration does not bear the responsibility for their maintenance. The request to not fill in the files protected by copyrights, and also files of the illegal maintenance!

    [Profile] [PM]
    Display posts from previous:    
    Reply to topic

    The time now is: Today 05:12

    All times are GMT + 3 Hours

    You cannot post new topics in this forum
    You cannot reply to topics in this forum
    You cannot edit your posts in this forum
    You cannot delete your posts in this forum
    You cannot vote in polls in this forum
    You cannot attach files in this forum
    You cannot download files in this forum