BitTorrentTracker PerecTracker.org
BitTorrentTracker PerecTracker.org
    
Регистрация  ·  Вход
 
 · 
Забыли пароль?

  • Четвертая планета / 4 планета (Дмитрий Астрахан) [1995, фантастика, фантасмагория, мелодрама, DVDRip-AVC]

    Ответить на тему
     
    Автор Сообщение

    Flirldrerve

    Создавать темы 30-Апр-2016 22:45

           

    [Цитировать]

    Четвертая планета / 4 планета
    Жанр: фантастика, фантасмагория, мелодрама
    Год выпуска: 1995
    Продолжительность: 01:27:27
    -
    Режиссёр: Дмитрий Астрахан
    В ролях: Анатолий Котенев, Дэниэл МакВикар, Юрий Орлов, Ольга Беляева, Дмитрий Астрахан, Владимир Храпунов, Анатолий Журавлев, Валентин Букин, Павел Яковлев, Валерий Никитенко, Антонина Введенская
    -
    Описание: Космическая экспедиция обнаруживает на Марсе, четвертой планете от Солнца, жизнь и не просто жизнь, а самый настоящий провинциальный советский городок времен застоя. Как "Солярис", Марс "вытягивает" и материализует воспоминания и не исполнившиеся мечты землян, заставляя их поверить, что они уже вернулись с планеты и попали в собственное прошлое. Именно в этом городке учился в средней школе командир корабля - полковник Сергей Беляев, он узнает свой двор, где прошло его детство. и, главное, он встречает Таню, девушку, которую он страстно любил, но которая ровно 20 лет назад была зверски убита. У Сергея появляется возможность спасти возлюбленную. Но для этого придется отказаться от возвращения на Землю, чтобы остаться в прошлом вместе с Таней…
    -
    Доп. информация: Плавающий кроп.
    -
    Сэмпл: http://sendfile.su/1229849
    -
    Качество видео: DVDRip-AVC (DVD5/leem335)
    Формат видео: MKV
    Видео: 700x472 (1,581:1) @ 746x472, 25 fps, AVC, ~2 190 Kbps, 0.265 bits/pixel
    Аудио: 48 kHz, AC3 Dolby Digital, 2/0 (L,R) ch, ~192 kbps

    MediaInfo

    x264 [info]: frame I:777 Avg QP:15.94 size: 42430
    x264 [info]: frame P:26197 Avg QP:18.32 size: 19815
    x264 [info]: frame B:104216 Avg QP:20.30 size: 8489-General
    Unique ID : 198704876961723989527402120163830352666 (0x957D2AD1CA28D8A8B264B69ED41D4B1A)
    Complete name : C:\Users\ALEX\Downloads\Фильмы\Четвёртая планета.1995.DVDRip-AVC.x264.AC3.mkv
    Format : Matroska
    Format version : Version 4 / Version 2
    File size : 1.46 GiB
    Duration : 1h 27mn
    Overall bit rate : 2 384 Kbps
    Encoded date : UTC 2016-04-30 17:34:41
    Writing application : mkvmerge v8.5.2 ('Crosses') 64bit
    Writing library : libebml v1.3.3 + libmatroska v1.4.4
    Video
    ID : 1
    Format : AVC
    Format/Info : Advanced Video Codec
    Format profile : High@L4.1
    Format settings, CABAC : Yes
    Format settings, ReFrames : 14 frames
    Codec ID : V_MPEG4/ISO/AVC
    Duration : 1h 27mn
    Bit rate : 2 190 Kbps
    Width : 700 pixels
    Height : 472 pixels
    Display aspect ratio : 16:10
    Frame rate mode : Constant
    Frame rate : 25.000 fps
    Color space : YUV
    Chroma subsampling : 4:2:0
    Bit depth : 8 bits
    Scan type : Progressive
    Bits/(Pixel*Frame) : 0.265
    Stream size : 1.34 GiB (92%)
    Title : Четвёртая планета
    Writing library : x264 core 148 r2638 7599210
    Encoding settings : cabac=1 / ref=14 / deblock=1:-3:-2 / analyse=0x3:0x113 / me=umh / subme=11 / psy=1 / psy_rd=1.00:0.10 / mixed_ref=1 / me_range=32 / chroma_me=1 / trellis=2 / 8x8dct=1 / cqm=0 / deadzone=21,11 / fast_pskip=0 / chroma_qp_offset=-3 / threads=6 / lookahead_threads=1 / sliced_threads=0 / nr=0 / decimate=1 / interlaced=0 / bluray_compat=0 / constrained_intra=0 / bframes=10 / b_pyramid=2 / b_adapt=2 / b_bias=0 / direct=3 / weightb=1 / open_gop=0 / weightp=2 / keyint=250 / keyint_min=25 / scenecut=40 / intra_refresh=0 / rc=2pass / mbtree=0 / bitrate=2190 / ratetol=1.0 / qcomp=0.60 / qpmin=0 / qpmax=69 / qpstep=4 / cplxblur=20.0 / qblur=0.5 / ip_ratio=1.40 / pb_ratio=1.30 / aq=1:1.00
    Language : Russian
    Default : Yes
    Forced : No
    Audio
    ID : 2
    Format : AC-3
    Format/Info : Audio Coding 3
    Mode extension : CM (complete main)
    Format settings, Endianness : Big
    Codec ID : A_AC3
    Duration : 1h 27mn
    Bit rate mode : Constant
    Bit rate : 192 Kbps
    Channel(s) : 2 channels
    Channel positions : Front: L R
    Sampling rate : 48.0 KHz
    Frame rate : 31.250 fps (1536 spf)
    Compression mode : Lossy
    Stream size : 120 MiB (8%)
    Title : Original
    Language : Russian
    Default : Yes
    Forced : No

    Скриншоты

    Скачать .torrent

    Скачать торрент-файл бесплатно и на максимальной скорости!

    Как скачивать? · Что такое торрент? · Рейтинг и ограничения

    !ВНИМАНИЕ!
    Сайт не распространяет и не хранит электронные версии произведений, а занимается лишь лишь предоставлением доступа к создаваемому пользователями каталогу ссылок на торрент-файлы, которые содержат только списки хеш-сумм, убедительная просьба с жалобами обращаться напрямую к пользователю. Файлы для обмена на трекере предоставлены пользователями сайта, и администрация не несёт ответственности за их содержание. Просьба не заливать файлы, защищенные авторскими правами, а также файлы нелегального содержания!


    _________________
    [Профиль] [ЛС]
    Показать сообщения:    
    Ответить на тему

    Текущее время: Сегодня, в 16:19

    Часовой пояс: GMT + 2



    Вы не можете начинать темы
    Вы не можете отвечать на сообщения
    Вы не можете редактировать свои сообщения
    Вы не можете удалять свои сообщения
    Вы не можете голосовать в опросах
    Вы не можете прикреплять файлы к сообщениям
    Вы не можете скачивать файлы