BitTorrentTracker PerecTracker.org
BitTorrentTracker PerecTracker.org
    
Регистрация  ·  Вход
 
 · 
Забыли пароль?

  • Алтарь / Призрак дома Редклифф / Altar / The Haunting of Radcliffe House (Ник Уиллинг / Nick Willing) [2014, Великобритания, Ужасы, мистика, BDRip] DVO

    Ответить на тему
     
    Автор Сообщение

    Light

    Создавать темы 30-Апр-2016 22:45

           

    [Цитировать]

    Алтарь / Призрак дома РедклиффAltar / The Haunting of Radcliffe House-Страна: Великобритания
    Жанр: Ужасы, мистика
    Год выпуска: 2014
    Продолжительность: 01:34:37-Перевод: Любительский (двухголосый закадровый) [МЕГАПЫХАРЬ и Элис]
    Cубтитры: нет-Режиссер: Ник Уиллинг / Nick Willing-В ролях: Оливия Уильямс, Мэттью Модайн, Антония Кларк, Адам Томас Райт, Ричард Диллэйн, Ховард Ли, Джонатан Джейнс, Ребекка Калдер, Стив Орам, Дэвид Дж. Пил-Описание: В дом, купленный американским банкиром, приезжает дизайнер со всей своей семьёй, с заданием привести его в исходное состояние. Но им было не известно, что дом был заброшен не просто так...-Sample | IMDB | КиноПоиск-Тип релиза: BDRip [исх. BDRemux 1080p спасибо [url=profile.php?mode=viewprofile&u=11511808]flaSI-I[/url]]
    Формат видео: AVI-Видео: 720x400 (1.80:1), 24.000 fps, XviD build 50, 2018 kbps avg, 0.29 bit/pixel
    Аудио: 48 kHz, AC3 Dolby Digital, 2/0 (L,R) ch, 192.00 kbps avg [Russian_DVO]-Релиз группы:
    -

    MediaInfo

    General
    Complete name : D:\Мои релизы\Altar_BDRip_RG_All_Films.avi
    Format : AVI
    Format/Info : Audio Video Interleave
    File size : 1.46 GiB
    Duration : 1h 34mn
    Overall bit rate : 2 216 Kbps
    Writing application : VirtualDubMod 1.5.10.3 | www.virtualdub-fr.org || (build 2550/release)
    Writing library : VirtualDubMod build 2550/release
    Video
    ID : 0
    Format : MPEG-4 Visual
    Format profile : Advanced Simple@L5
    Format settings, BVOP : Yes
    Format settings, QPel : No
    Format settings, GMC : No warppoints
    Format settings, Matrix : Custom
    Codec ID : XVID
    Codec ID/Hint : XviD
    Duration : 1h 34mn
    Bit rate : 2 019 Kbps
    Width : 720 pixels
    Height : 400 pixels
    Display aspect ratio : 16:9
    Frame rate : 24.000 fps
    Color space : YUV
    Chroma subsampling : 4:2:0
    Bit depth : 8 bits
    Scan type : Progressive
    Compression mode : Lossy
    Bits/(Pixel*Frame) : 0.292
    Stream size : 1.33 GiB (91%)
    Writing library : XviD 1.2.1 (UTC 2008-12-04)
    Audio
    ID : 1
    Format : AC-3
    Format/Info : Audio Coding 3
    Mode extension : CM (complete main)
    Codec ID : 2000
    Duration : 1h 32mn
    Bit rate mode : Constant
    Bit rate : 192 Kbps
    Channel(s) : 2 channels
    Channel positions : Front: L R
    Sampling rate : 48.0 KHz
    Bit depth : 16 bits
    Compression mode : Lossy
    Stream size : 127 MiB (8%)
    Alignment : Split accross interleaves
    Interleave, duration : 43 ms (1.02 video frame)
    Interleave, preload duration : 500 ms

    Скриншоты

    Скачать .torrent

    Скачать торрент-файл бесплатно и на максимальной скорости!

    Как скачивать? · Что такое торрент? · Рейтинг и ограничения

    !ВНИМАНИЕ!
    Сайт не распространяет и не хранит электронные версии произведений, а занимается лишь лишь предоставлением доступа к создаваемому пользователями каталогу ссылок на торрент-файлы, которые содержат только списки хеш-сумм, убедительная просьба с жалобами обращаться напрямую к пользователю. Файлы для обмена на трекере предоставлены пользователями сайта, и администрация не несёт ответственности за их содержание. Просьба не заливать файлы, защищенные авторскими правами, а также файлы нелегального содержания!


    _________________
    [Профиль] [ЛС]
    Показать сообщения:    
    Ответить на тему

    Текущее время: Сегодня, в 12:29

    Часовой пояс: GMT + 2



    Вы не можете начинать темы
    Вы не можете отвечать на сообщения
    Вы не можете редактировать свои сообщения
    Вы не можете удалять свои сообщения
    Вы не можете голосовать в опросах
    Вы не можете прикреплять файлы к сообщениям
    Вы не можете скачивать файлы