BitTorrentTracker PerecTracker.org
BitTorrentTracker PerecTracker.org
    
Регистрация  ·  Вход
 
 · 
Забыли пароль?

  • Гастролёры (Паланга) / Серии: 1-16 из 16 (Андрей Щербинин) [2015, криминал, HDTVRip]

    Ответить на тему
     
    Автор Сообщение

    rechyn

    Создавать темы 30-Апр-2016 18:44

           

    [Цитировать]

    Гастролёры (Паланга)Год выпуска: 2015
    Производитель : Россия,Продюсерский центр Сергея Жигунова, Телеканал НТВ
    Жанр: криминал
    Продолжительность: 45 мин.
    Cубтитры: нет
    Режиссер: Андрей Щербинин
    В ролях: Максим Аверин, Алексей Воробьёв, Ксения Кутепова, Арнис Лицитис, Сергей Перегудов, Ивар Калныньш, Екатерина Кузнецова (IV), Сергей Уманов, Кристина Кузьмина, Анна Табанина, Владимир Зайцев, Лембит Ульфсак, Борис Шувалов, Сергей Сосновский, Александр Баширов, Сергей Маркеев, Егор Петренко, Екатерина Шевченко, Никита Морозов, Анастасия Чистякова (II), Алла Еминцева, Мария Капустинская, Елена Карпова, Наталья Щербакова, Ольга Онищенко, Екатерина Зорина, Игорь Лепихин, Александр Марушев, Сергей Шеховцов, Яков Шамшин, Владимир Крылов, Лев Елисеев, Александр Клемантович, Евгений Сиротин, Константин Липатов (II), Константин Воробьёв, Марианна Лучинина, Аркадий Коваль
    Описание:
    В криминальном районе Тамбова живут два брата — Вова Сабонеев (Максим Аверин), владелец популярного среди братвы ресторана, и Мишаня (Алексей Воробьёв), беспечный весельчак, вечно попадающий в переделки. Очередная выходка Мишани провоцирует конфликт между Вовой и местными авторитетами. Братья вынуждены бежать в Литву, с которой у Вовы связаны романтические воспоминания. Именно там родственники планируют начать другую жизнь. И зовут их теперь по-новому — Вовас и Микас, вот только привычки у них остались прежними…
    Релиз группа
    Все раздачи сериала
    Сэмпл
    Качество: HDTVRip
    Формат: AVI
    Видео кодек: XviD
    Аудио кодек: AC3
    Видео: 720x400 (1.80:1), 25 fps, XviD build 73 ~1648 kbps avg, 0.22 bit/pixel
    Аудио: 48 kHz, AC3 Dolby Digital, 2/0 (L,R) ch, ~192.00 kbps avg

    MI

    Общее
    Полное имя : F:\Video\Gastrolery.2015.HDTVRip.Files-x.Gastrolery.2015.HDTVRip.Files-x.avi
    Формат : AVI
    Формат/Информация : Audio Video Interleave
    Размер файла : 550 Мбайт
    Продолжительность : 41 м.
    Общий поток : 1842 Кбит/сек
    Программа кодирования : VirtualDubModRus 1.5.10.2 (build 2542/release)
    Библиотека кодирования : VirtualDubMod build 2542/release
    Видео
    Идентификатор : 0
    Формат : MPEG-4 Visual
    Профиль формата : Advanced Simple@L5
    Параметр BVOP формата : 1
    Параметр QPel формата : Нет
    Параметр GMC формата : Без точки перехода
    Параметр матрицы формата : Выборочная
    Идентификатор кодека : XVID
    Идентификатор кодека/Подсказка : XviD
    Продолжительность : 41 м.
    Битрейт : 1640 Кбит/сек
    Ширина : 720 пикселей
    Высота : 400 пикселей
    Соотношение сторон : 16:9
    Частота кадров : 25,000 кадров/сек
    Цветовое пространство : YUV
    Субдискретизация насыщенности : 4:2:0
    Битовая глубина : 8 бит
    Тип развёртки : Прогрессивная
    Метод сжатия : С потерями
    Бит/(Пиксели*Кадры) : 0.228
    Размер потока : 490 Мбайт (89%)
    Библиотека кодирования : XviD 73
    Аудио
    Идентификатор : 1
    Формат : AC-3
    Формат/Информация : Audio Coding 3
    Расширение режима : CM (complete main)
    Параметр Endianness формата : Big
    Идентификатор кодека : 2000
    Продолжительность : 41 м.
    Вид битрейта : Постоянный
    Битрейт : 192 Кбит/сек
    Каналы : 2 канала
    Расположение каналов : Front: L R
    Частота : 48,0 КГц
    Частота кадров : 31,250 кадров/сек (1536 spf)
    Метод сжатия : С потерями
    Размер потока : 57,3 Мбайт (10%)
    Выравнивание : Разделение по промежуткам
    Продолжительность промежутка : 40 мс. (1,00 видеокадр)
    Время предзагрузки промежутка : 500 мс.

    Скриншоты

    Скачать .torrent

    Скачать торрент-файл бесплатно и на максимальной скорости!

    Как скачивать? · Что такое торрент? · Рейтинг и ограничения

    !ВНИМАНИЕ!
    Сайт не распространяет и не хранит электронные версии произведений, а занимается лишь лишь предоставлением доступа к создаваемому пользователями каталогу ссылок на торрент-файлы, которые содержат только списки хеш-сумм, убедительная просьба с жалобами обращаться напрямую к пользователю. Файлы для обмена на трекере предоставлены пользователями сайта, и администрация не несёт ответственности за их содержание. Просьба не заливать файлы, защищенные авторскими правами, а также файлы нелегального содержания!


    _________________
    [Профиль] [ЛС]
    Показать сообщения:    
    Ответить на тему

    Текущее время: Сегодня, в 04:20

    Часовой пояс: GMT + 2



    Вы не можете начинать темы
    Вы не можете отвечать на сообщения
    Вы не можете редактировать свои сообщения
    Вы не можете удалять свои сообщения
    Вы не можете голосовать в опросах
    Вы не можете прикреплять файлы к сообщениям
    Вы не можете скачивать файлы