BitTorrentTracker PerecTracker.org
BitTorrentTracker PerecTracker.org
    
Регистрация  ·  Вход
 
 · 
Забыли пароль?

  • Да здравствует Цезарь! / Hail, Caesar! (Итан Коэн / Ethan Coen, Джоэл Коэн / Joel Coen) [2016, Великобритания, Комедия, детектив, WEB-DLRip] Dub (iTunes)

    Ответить на тему
     
    Автор Сообщение

    rechyn

    Создавать темы 30-Апр-2016 10:22

           

    [Цитировать]

    Да здравствует Цезарь! / Hail, Caesar!«Lights. Camera. Abduction»Страна: Великобритания, США, Япония
    Жанр: комедия, детектив
    Год выпуска: 2016
    Продолжительность: 01:46:05
    Перевод: Профессиональный (полное дублирование) (iTunes)
    Cубтитры: нет
    Оригинальная аудиодорожка: нет
    Режиссер: Итан Коэн / Ethan Coen, Джоэл Коэн / Joel Coen
    В ролях: Джош Бролин, Джордж Клуни, Рэйф Файнс, Скарлетт Йоханссон, Ченнинг Татум, Джона Хилл, Дольф Лундгрен, Кристофер Ламберт, Тильда Суинтон, Фрэнсис МакДорманд, Майкл Гэмбон, Вероника Осорио, Олден Эренрайк
    Описание: Добро пожаловать в Голливуд — империю блеска, роскоши и порока. Здесь обитают кумиры миллионов. Что ни день — пиршество для светских хроникеров. И вот однажды исчезает исполнитель главной роли в фильме «Да здравствует Цезарь!». Ни жена, ни многочисленные любовницы не знают, где он. И теперь продюсера студии ждет веселый денек, ведь он должен найти звезду раньше репортеров…
    Группа
    желает всем приятного просмотра!Качество видео: WEB-DLRip / WEB-DL (1080p)
    Формат видео: AVI
    Видео: 656x352 (1.86:1), 23.976 fps, XviD build 65 ~839 kbps avg, 0.15 bit/pixel
    Audio: 48 kHz, MPEG Layer 3, 2 ch, ~128.00 kbps avg
    MediaInfo
    General
    Complete name : C:\Users\Никита\Desktop\фильм.avi
    Format : AVI
    Format/Info : Audio Video Interleave
    File size : 741 MiB
    Duration : 1h 46mn
    Overall bit rate : 977 Kbps
    Writing application : VirtualDubMod 1.5.10.2 (build 2540/release)
    Writing library : VirtualDubMod build 2540/release
    Video
    ID : 0
    Format : MPEG-4 Visual
    Format profile : Advanced Simple@L5
    Format settings, BVOP : 1
    Format settings, QPel : No
    Format settings, GMC : No warppoints
    Format settings, Matrix : Custom
    Codec ID : XVID
    Codec ID/Hint : XviD
    Duration : 1h 46mn
    Bit rate : 840 Kbps
    Width : 656 pixels
    Height : 352 pixels
    Display aspect ratio : 1.85:1
    Frame rate : 23.976 fps
    Color space : YUV
    Chroma subsampling : 4:2:0
    Bit depth : 8 bits
    Scan type : Progressive
    Compression mode : Lossy
    Bits/(Pixel*Frame) : 0.152
    Stream size : 637 MiB (86%)
    Writing library : XviD 65
    Audio
    ID : 1
    Format : MPEG Audio
    Format version : Version 1
    Format profile : Layer 3
    Mode : Joint stereo
    Mode extension : MS Stereo
    Codec ID : 55
    Codec ID/Hint : MP3
    Duration : 1h 46mn
    Bit rate mode : Constant
    Bit rate : 128 Kbps
    Channel(s) : 2 channels
    Sampling rate : 48.0 KHz
    Compression mode : Lossy
    Stream size : 97.1 MiB (13%)
    Alignment : Aligned on interleaves
    Interleave, duration : 42 ms (1.00 video frame)
    Interleave, preload duratio : 504 ms
    Writing library : LAME3.99r
    Encoding settings : -m j -V 4 -q 2 -lowpass 17 -b 128
    Скриншоты
    Скачать .torrent

    Скачать торрент-файл бесплатно и на максимальной скорости!

    Как скачивать? · Что такое торрент? · Рейтинг и ограничения

    !ВНИМАНИЕ!
    Сайт не распространяет и не хранит электронные версии произведений, а занимается лишь лишь предоставлением доступа к создаваемому пользователями каталогу ссылок на торрент-файлы, которые содержат только списки хеш-сумм, убедительная просьба с жалобами обращаться напрямую к пользователю. Файлы для обмена на трекере предоставлены пользователями сайта, и администрация не несёт ответственности за их содержание. Просьба не заливать файлы, защищенные авторскими правами, а также файлы нелегального содержания!


    _________________
    [Профиль] [ЛС]
    Показать сообщения:    
    Ответить на тему

    Текущее время: Сегодня, в 23:59

    Часовой пояс: GMT + 2



    Вы не можете начинать темы
    Вы не можете отвечать на сообщения
    Вы не можете редактировать свои сообщения
    Вы не можете удалять свои сообщения
    Вы не можете голосовать в опросах
    Вы не можете прикреплять файлы к сообщениям
    Вы не можете скачивать файлы