BitTorrentTracker PerecTracker.org
BitTorrentTracker PerecTracker.org
    
Регистрация  ·  Вход
 
 · 
Забыли пароль?

  • Дурак (Юрий Быков) [2014, Россия, драма, BDRip-AVC]

    Ответить на тему
     
    Автор Сообщение

    Flirldrerve

    Создавать темы 30-Апр-2016 02:05

           

    [Цитировать]

    Дурак
    «Успеет ли он спасти всех»
    -Страна: Россия
    Жанр: драма
    Год выпуска: 2014
    Продолжительность: 02:00:52
    Перевод: Не требуется
    Оригинальная аудиодорожка: русский
    Режиссер: Юрий Быков
    В ролях: Артём Быстров, Наталья Суркова, Юрий Цурило, Борис Невзоров, Кирилл Полухин, Роман Майоров, Иван Брэд, Александр Коршунов, Ольга Самошина, Дарья Мороз
    Описание: Жизни 800 человек общежития висят буквально на волоске из-за безразличия местных властей. В любую секунду здание может рухнуть. И кто бы мог подумать, что судьбы людей окажутся в руках простого сантехника. Но удастся ли ему что-то изменить и предотвратить катастрофу?

    Качество: BDRip-AVC (исходник - Blu-ray)
    Формат: MKV
    Видео: x264, 1088x456 (2.40:1), 24.000 кадр/сек, 1541 Кбит/сек, 0.129 bit/pixel
    Аудио: 48 kHz, AC3 Dolby Digital, 2.0 (L,R), ~192 kbps avg
    MediaInfo | x264 log
    Format : Matroska
    Format version : Version 4 / Version 2
    File size : 1.46 GiB
    Duration : 2h 0mn
    Overall bit rate : 1 733 Kbps
    Movie name : Дурак (2014) :: AFM ::
    Encoded date : UTC 2016-04-29 18:49:19
    Writing application : mkvmerge v8.3.0 ('Over the Horizon') 32bit
    Writing library : libebml v1.3.1 + libmatroska v1.4.2
    Video
    ID : 1
    Format : AVC
    Format/Info : Advanced Video Codec
    Format profile : High@L4.1
    Format settings, CABAC : Yes
    Format settings, ReFrames : 12 frames
    Codec ID : V_MPEG4/ISO/AVC
    Duration : 2h 0mn
    Bit rate : 1 541 Kbps
    Width : 1 088 pixels
    Height : 456 pixels
    Display aspect ratio : 2.40:1
    Frame rate mode : Constant
    Frame rate : 24.000 fps
    Color space : YUV
    Chroma subsampling : 4:2:0
    Bit depth : 8 bits
    Scan type : Progressive
    Bits/(Pixel*Frame) : 0.129
    Stream size : 1.27 GiB (87%)
    Title : BDRip by AFM [RuTracker.org]
    Writing library : x264 core 148 r2665+53 6629127 t_mod_Custom [8-bit@all X86_64]
    Encoding settings : cabac=1 / ref=12 / deblock=1:-2:-2 / analyse=0x3:0x113 / me=umh / subme=10 / psy=1 / fade_compensate=0.00 / psy_rd=1.00:0.00 / mixed_ref=1 / me_range=32 / chroma_me=1 / trellis=2 / 8x8dct=1 / cqm=0 / deadzone=21,11 / fast_pskip=0 / chroma_qp_offset=-2 / threads=6 / lookahead_threads=1 / sliced_threads=0 / nr=0 / decimate=0 / interlaced=0 / bluray_compat=0 / constrained_intra=0 / fgo=0 / bframes=15 / b_pyramid=2 / b_adapt=2 / b_bias=0 / direct=3 / weightb=1 / open_gop=0 / weightp=2 / keyint=250 / keyint_min=23 / scenecut=40 / intra_refresh=0 / rc_lookahead=40 / rc=2pass / mbtree=0 / bitrate=1541 / ratetol=1.0 / qcomp=0.65 / qpmin=0:0:0 / qpmax=69:69:69 / qpstep=4 / cplxblur=20.0 / qblur=0.5 / vbv_maxrate=50000 / vbv_bufsize=62500 / nal_hrd=none / filler=0 / ip_ratio=1.25 / pb_ratio=1.30 / aq=3:0.80 / aq-sensitivity=10.00 / aq-factor=1.00:1.00:1.00 / aq2=0 / aq3=0
    Language : Russian
    Default : Yes
    Forced : No
    Audio
    ID : 2
    Format : AC-3
    Format/Info : Audio Coding 3
    Mode extension : CM (complete main)
    Format settings, Endianness : Big
    Codec ID : A_AC3
    Duration : 2h 0mn
    Bit rate mode : Constant
    Bit rate : 192 Kbps
    Channel(s) : 2 channels
    Channel positions : Front: L R
    Sampling rate : 48.0 KHz
    Compression mode : Lossy
    Stream size : 166 MiB (11%)
    Title : AC3 2.0 ~192 kbps
    Language : Russian
    Default : Yes
    Forced : No

    x264

    x264 [info]: frame I:919 Avg QP:13.91 size: 58573
    x264 [info]: frame P:34939 Avg QP:16.65 size: 18982
    x264 [info]: frame B:138194 Avg QP:18.81 size: 4908
    x264 [info]: consecutive B-frames: 1.8% 2.3% 7.7% 10.0% 18.2% 40.5% 7.8% 2.0% 2.2% 1.3% 1.7% 0.7% 0.9% 0.7% 0.6% 1.5%
    x264 [info]: mb I I16..4: 8.4% 76.0% 15.5%
    x264 [info]: mb P I16..4: 1.5% 6.6% 0.9% P16..4: 41.7% 29.5% 15.2% 0.0% 0.0% skip: 4.6%
    x264 [info]: mb B I16..4: 0.1% 0.3% 0.0% B16..8: 40.7% 11.0% 2.5% direct: 3.3% skip:42.1% L0:44.7% L1:46.4% BI: 9.0%
    x264 [info]: 8x8 transform intra:73.8% inter:61.8%
    x264 [info]: direct mvs spatial:99.2% temporal:0.8%
    x264 [info]: coded y,uvDC,uvAC intra: 77.4% 77.0% 57.8% inter: 17.6% 13.5% 6.3%
    x264 [info]: i16 v,h,dc,p: 58% 13% 9% 20%
    x264 [info]: i8 v,h,dc,ddl,ddr,vr,hd,vl,hu: 14% 8% 9% 9% 12% 12% 12% 11% 12%
    x264 [info]: i4 v,h,dc,ddl,ddr,vr,hd,vl,hu: 12% 6% 5% 10% 15% 14% 13% 11% 12%
    x264 [info]: i8c dc,h,v,p: 43% 24% 19% 14%
    x264 [info]: Weighted P-Frames: Y:98.1% UV:1.5%
    x264 [info]: ref P L0: 46.2% 8.8% 16.6% 6.4% 5.5% 4.0% 3.6% 2.0% 2.0% 1.6% 1.6% 1.5% 0.2% 0.0%
    x264 [info]: ref B L0: 69.5% 12.5% 6.2% 3.3% 2.4% 2.0% 1.6% 1.0% 0.9% 0.5% 0.3%
    x264 [info]: ref B L1: 91.1% 8.9%
    x264 [info]: kb/s:1539.22

    Скриншоты

    с названием

    Сравнениес .avi http://perectracker.org/http://perectracker.org/viewtopic.php?t=5217112 http://screenshotcomparison.com/comparison/171173
    Скачать .torrent

    Скачать торрент-файл бесплатно и на максимальной скорости!

    Как скачивать? · Что такое торрент? · Рейтинг и ограничения

    !ВНИМАНИЕ!
    Сайт не распространяет и не хранит электронные версии произведений, а занимается лишь лишь предоставлением доступа к создаваемому пользователями каталогу ссылок на торрент-файлы, которые содержат только списки хеш-сумм, убедительная просьба с жалобами обращаться напрямую к пользователю. Файлы для обмена на трекере предоставлены пользователями сайта, и администрация не несёт ответственности за их содержание. Просьба не заливать файлы, защищенные авторскими правами, а также файлы нелегального содержания!


    _________________
    [Профиль] [ЛС]
    Показать сообщения:    
    Ответить на тему

    Текущее время: Сегодня, в 12:33

    Часовой пояс: GMT + 2



    Вы не можете начинать темы
    Вы не можете отвечать на сообщения
    Вы не можете редактировать свои сообщения
    Вы не можете удалять свои сообщения
    Вы не можете голосовать в опросах
    Вы не можете прикреплять файлы к сообщениям
    Вы не можете скачивать файлы