BitTorrentTracker PerecTracker.org
BitTorrentTracker PerecTracker.org
    
Регистрация  ·  Вход
 
 · 
Забыли пароль?

  • Кавказский пленник (Сергей Бодров) [1996, драма, военный, DVDRip-AVC] Sub (Rus)

    Ответить на тему
     
    Автор Сообщение

    Flirldrerve

    Создавать темы 29-Апр-2016 22:00

           

    [Цитировать]

    Кавказский пленник
    Жанр: драма, военный
    Год выпуска: 1996
    Продолжительность: 01:39:16
    -
    Режиссёр: Сергей Бодров
    В ролях: Олег Меньшиков, Сергей Бодров мл., Джемал Сихарулидзе, Сусанна Мехралиева, Александр Буреев, Валентина Федотова, Алексей Жарков, Т. Кибыев, Валерий Кострин, Павел Лебешев
    -
    Описание: На Кавказе — война. Двух раненых русских солдат забирает житель отдаленного горного аула Абдул-Марат. Сын Абдул-Марата находится в плену у русских, и старик хочет договориться с комендантом лагеря об обмене пленными.
    -
    Доп. информация: Субтитры сделал сам из полных субтитров.
    -
    Сэмпл: http://sendfile.su/1229498
    -
    Качество видео: DVDRip-AVC (DVD5/Doc66)
    Формат видео: MKV
    Видео: 712x448 (1.85:1) @ 842x448, 23.976 fps, AVC, ~1 905 Kbps, 0.249 bits/pixel
    Аудио: 48 kHz, AC3 Dolby Digital, 2/0 (L,R) ch, ~192 kbps
    Субтитры: Русские (на чеченскую речь) (srt)

    MediaInfo

    x264 [info]: frame I:874 Avg QP:18.01 size: 64477
    x264 [info]: frame P:30193 Avg QP:20.28 size: 21602
    x264 [info]: frame B:111742 Avg QP:22.38 size: 6349-General
    Unique ID : 183468458399488900248929897448104995856 (0x8A06BD62C2A8E769A988DE3133372C10)
    Complete name : C:\Users\ALEX\Downloads\Фильмы\Кавказский пленник.1996.DVDRip-AVC.x264.AC3.Sub.mkv
    Format : Matroska
    Format version : Version 4 / Version 2
    File size : 1.45 GiB
    Duration : 1h 39mn
    Overall bit rate : 2 098 Kbps
    Encoded date : UTC 2016-04-29 17:42:30
    Writing application : mkvmerge v8.5.2 ('Crosses') 64bit
    Writing library : libebml v1.3.3 + libmatroska v1.4.4
    Video
    ID : 1
    Format : AVC
    Format/Info : Advanced Video Codec
    Format profile : High@L4.1
    Format settings, CABAC : Yes
    Format settings, ReFrames : 14 frames
    Codec ID : V_MPEG4/ISO/AVC
    Duration : 1h 39mn
    Bit rate : 1 905 Kbps
    Width : 712 pixels
    Height : 448 pixels
    Display aspect ratio : 1.85:1
    Original display aspect rat : 1.880
    Frame rate mode : Constant
    Frame rate : 23.976 (24000/1001) fps
    Color space : YUV
    Chroma subsampling : 4:2:0
    Bit depth : 8 bits
    Scan type : Progressive
    Bits/(Pixel*Frame) : 0.249
    Stream size : 1.32 GiB (91%)
    Title : Кавказский пленник - Prisoner Of The Mountains
    Writing library : x264 core 148 r2638 7599210
    Encoding settings : cabac=1 / ref=14 / deblock=1:-3:-3 / analyse=0x3:0x113 / me=umh / subme=11 / psy=1 / psy_rd=1.00:0.15 / mixed_ref=1 / me_range=32 / chroma_me=1 / trellis=2 / 8x8dct=1 / cqm=0 / deadzone=21,11 / fast_pskip=0 / chroma_qp_offset=-3 / threads=6 / lookahead_threads=1 / sliced_threads=0 / nr=0 / decimate=1 / interlaced=0 / bluray_compat=0 / constrained_intra=0 / bframes=10 / b_pyramid=2 / b_adapt=2 / b_bias=0 / direct=3 / weightb=1 / open_gop=0 / weightp=2 / keyint=240 / keyint_min=23 / scenecut=40 / intra_refresh=0 / rc=2pass / mbtree=0 / bitrate=1905 / ratetol=1.0 / qcomp=0.60 / qpmin=0 / qpmax=69 / qpstep=4 / cplxblur=20.0 / qblur=0.5 / ip_ratio=1.40 / pb_ratio=1.30 / aq=1:1.00
    Language : English
    Default : Yes
    Forced : No
    Audio
    ID : 2
    Format : AC-3
    Format/Info : Audio Coding 3
    Format profile : Dolby Digital
    Mode extension : CM (complete main)
    Format settings, Endianness : Big
    Codec ID : A_AC3
    Duration : 1h 39mn
    Bit rate mode : Constant
    Bit rate : 192 Kbps
    Channel(s) : 2 channels
    Channel positions : Front: L R
    Sampling rate : 48.0 KHz
    Frame rate : 31.250 fps (1536 spf)
    Compression mode : Lossy
    Stream size : 136 MiB (9%)
    Title : Original
    Language : Russian
    Default : Yes
    Forced : No
    Text
    ID : 3
    Format : UTF-8
    Codec ID : S_TEXT/UTF8
    Codec ID/Info : UTF-8 Plain Text
    Duration : 1h 33mn
    Bit rate : 5 bps
    Count of elements : 86
    Stream size : 4.01 KiB (0%)
    Title : Forced
    Language : Russian
    Default : Yes
    Forced : No

    Скриншоты

    Скачать .torrent

    Скачать торрент-файл бесплатно и на максимальной скорости!

    Как скачивать? · Что такое торрент? · Рейтинг и ограничения

    !ВНИМАНИЕ!
    Сайт не распространяет и не хранит электронные версии произведений, а занимается лишь лишь предоставлением доступа к создаваемому пользователями каталогу ссылок на торрент-файлы, которые содержат только списки хеш-сумм, убедительная просьба с жалобами обращаться напрямую к пользователю. Файлы для обмена на трекере предоставлены пользователями сайта, и администрация не несёт ответственности за их содержание. Просьба не заливать файлы, защищенные авторскими правами, а также файлы нелегального содержания!


    _________________
    [Профиль] [ЛС]
    Показать сообщения:    
    Ответить на тему

    Текущее время: Сегодня, в 08:24

    Часовой пояс: GMT + 2



    Вы не можете начинать темы
    Вы не можете отвечать на сообщения
    Вы не можете редактировать свои сообщения
    Вы не можете удалять свои сообщения
    Вы не можете голосовать в опросах
    Вы не можете прикреплять файлы к сообщениям
    Вы не можете скачивать файлы