BitTorrentTracker PerecTracker.org
BitTorrentTracker PerecTracker.org
    
Регистрация  ·  Вход
 
 · 
Забыли пароль?

  • Побег к победе / Победа / Escape to Victory / Victory (Джон Хьюстон / John Huston) [1981, США, военный, драма, спорт, WEB-DL 720p] DVO + 2x AVO + Sub Eng + Original Eng

    Ответить на тему
     
    Автор Сообщение

    Light

    Создавать темы 29-Апр-2016 13:48

           

    [Цитировать]

    Побег к победе / Победа / Escape to Victory / Victory
    -Страна: США
    Жанр: Военный, драма, спорт
    Год выпуска: 1981
    Продолжительность: 01:56:35-Перевод: Профессиональный (двухголосый, закадровый)
    Перевод: Авторский (одноголосый, закадровый) Гаврилов
    Перевод: Авторский (одноголосый, закадровый) Володарский
    Cубтитры: английские
    Оригинальная аудиодорожка: английский-Режиссер: Джон Хьюстон / John Huston-В ролях: Майкл Кейн, Сильвестр Сталлоне, Макс фон Cюдов, Дэниэл Мэсси, Тим Пиггот-Смит, Джулиэн Керри, Клайв Меррисон, Пеле, Бобби Мур, Освальдо Ардильс, Ко Принс, Майк Саммерби-Описание:
    Вторая мировая война. Лагерь военнопленных. Бывший футболист Колби создает команду из заключенных и добивается разрешения на проведение матча между сборной Германии и военнопленными. К нему в команду попадает офицер-канадец Хэтч, который одержим мыслью выбраться на свободу. Ему удается бежать и связаться с бойцами французского Сопротивления. И вот наступает день матча....-Сэмпл: Скачать-Тип релиза: WEB-DL 720p
    Контейнер: MKV-Видео: 1280x534 (2.40:1); 4080 Kbps; 23.976 fps; 0.178 bpp
    Аудио 1: Russian; AC3; 48.0 KHz; 2ch; 192 Kbps DVO
    Аудио 2: Russian; AC3; 48.0 KHz; 2ch; 192 Kbps AVO Гаврилов
    Аудио 3: Russian; AC3; 48.0 KHz; 2ch; 192 Kbps AVO Володарский
    Аудио 4: English; AAC; 48.0 KHz; 2ch; 160 Kbps

    MediaInfo

    Format : Matroska
    Format version : Version 4 / Version 2
    File size : 4.05 GiB
    Duration : 1h 57mn
    Overall bit rate : 4 938 Kbps
    Encoded date : UTC 2015-07-30 16:30:42
    Writing application : mkvmerge v8.1.0 ('Psychedelic Postcard') 64bit
    Writing library : libebml v1.3.1 + libmatroska v1.4.2
    Attachements : poster.jpg
    DURATION : 01:45:17.500000000
    NUMBER_OF_FRAMES : 1139
    NUMBER_OF_BYTES : 36658
    _STATISTICS_WRITING_APP : mkvmerge v8.1.0 ('Psychedelic Postcard') 64bit
    _STATISTICS_WRITING_DATE_UT : 2015-07-30 16:30:42
    _STATISTICS_TAGS : BPS DURATION NUMBER_OF_FRAMES NUMBER_OF_BYTES
    Video
    ID : 1
    Format : AVC
    Format/Info : Advanced Video Codec
    Format profile : Main@L3.1
    Format settings, CABAC : No
    Format settings, ReFrames : 2 frames
    Codec ID : V_MPEG4/ISO/AVC
    Duration : 1h 57mn
    Width : 1 280 pixels
    Height : 534 pixels
    Display aspect ratio : 2.40:1
    Frame rate mode : Constant
    Frame rate : 23.976 fps
    Color space : YUV
    Chroma subsampling : 4:2:0
    Bit depth : 8 bits
    Scan type : Progressive
    Language : English
    Default : Yes
    Forced : No
    Color range : Limited
    Color primaries : BT.709
    Transfer characteristics : BT.709
    Matrix coefficients : BT.709
    Audio #1
    ID : 2
    Format : AC-3
    Format/Info : Audio Coding 3
    Mode extension : CM (complete main)
    Format settings, Endianness : Big
    Codec ID : A_AC3
    Duration : 1h 57mn
    Bit rate mode : Constant
    Bit rate : 192 Kbps
    Channel(s) : 2 channels
    Channel positions : Front: L R
    Sampling rate : 48.0 KHz
    Compression mode : Lossy
    Stream size : 161 MiB (4%)
    Title : DVO
    Language : Russian
    Default : Yes
    Forced : No
    Audio #2
    ID : 3
    Format : AC-3
    Format/Info : Audio Coding 3
    Mode extension : CM (complete main)
    Format settings, Endianness : Big
    Codec ID : A_AC3
    Duration : 1h 57mn
    Bit rate mode : Constant
    Bit rate : 192 Kbps
    Channel(s) : 2 channels
    Channel positions : Front: L R
    Sampling rate : 48.0 KHz
    Compression mode : Lossy
    Stream size : 161 MiB (4%)
    Title : AVO Гаврилов
    Language : Russian
    Default : No
    Forced : No
    Audio #3
    ID : 4
    Format : AC-3
    Format/Info : Audio Coding 3
    Mode extension : CM (complete main)
    Format settings, Endianness : Big
    Codec ID : A_AC3
    Duration : 1h 57mn
    Bit rate mode : Constant
    Bit rate : 192 Kbps
    Channel(s) : 2 channels
    Channel positions : Front: L R
    Sampling rate : 48.0 KHz
    Compression mode : Lossy
    Stream size : 161 MiB (4%)
    Title : AVO Володарский
    Language : Russian
    Default : No
    Forced : No
    Audio #4
    ID : 5
    Format : AAC
    Format/Info : Advanced Audio Codec
    Format profile : LC
    Codec ID : A_AAC
    Duration : 1h 57mn
    Channel(s) : 2 channels
    Channel positions : Front: L R
    Sampling rate : 48.0 KHz
    Compression mode : Lossy
    Language : English
    Default : No
    Forced : No
    Text
    ID : 6
    Format : UTF-8
    Codec ID : S_TEXT/UTF8
    Codec ID/Info : UTF-8 Plain Text
    Language : English
    Default : No
    Forced : No

    Скриншоты

    Скачать .torrent

    Скачать торрент-файл бесплатно и на максимальной скорости!

    Как скачивать? · Что такое торрент? · Рейтинг и ограничения

    !ВНИМАНИЕ!
    Сайт не распространяет и не хранит электронные версии произведений, а занимается лишь лишь предоставлением доступа к создаваемому пользователями каталогу ссылок на торрент-файлы, которые содержат только списки хеш-сумм, убедительная просьба с жалобами обращаться напрямую к пользователю. Файлы для обмена на трекере предоставлены пользователями сайта, и администрация не несёт ответственности за их содержание. Просьба не заливать файлы, защищенные авторскими правами, а также файлы нелегального содержания!


    _________________
    [Профиль] [ЛС]
    Показать сообщения:    
    Ответить на тему

    Текущее время: Сегодня, в 16:34

    Часовой пояс: GMT + 2



    Вы не можете начинать темы
    Вы не можете отвечать на сообщения
    Вы не можете редактировать свои сообщения
    Вы не можете удалять свои сообщения
    Вы не можете голосовать в опросах
    Вы не можете прикреплять файлы к сообщениям
    Вы не можете скачивать файлы