BitTorrentTracker PerecTracker.org
BitTorrentTracker PerecTracker.org
    
Регистрация  ·  Вход
 
 · 
Забыли пароль?

  • [ATV3] Помню – не помню! (Василий Ровенский) [2016, Россия, Комедия, WEB-DL, HD (1080p)] Original

    Ответить на тему
     
    Автор Сообщение

    rechyn

    Создавать темы 29-Апр-2016 13:48

           

    [Цитировать]

    Помню – не помню!
    «Почувствуй себя в чужом теле!»
    -Год выпуска: 2016
    Страна: Россия
    Жанр: Комедия
    Продолжительность: 01:15:30
    Перевод: Не требуется
    Оригинальная аудиодорожка: Есть
    Cубтитры: Нет
    Режиссёр: Василий Ровенский
    Сценарий: Василий Ровенский
    Продюсер: Василий Ровенский, Антонина Руже
    Оператор: Тим Лобов
    Композитор: Константин Шустарев
    Художник: Мария Пасичник, Анастасия Романова
    Монтаж: Мария Лихачева
    В ролях: Наталия Медведева, Полина Максимова, Константин Крюков, Людмила Артемьева, Анна Ардова, Александр Демидов, Сергей Бадюк, Вадим Демчог, Анна Хилькевич, Дмитрий Хрусталев
    Сборы в России: 9 250
    Мировая премьера: 8 апреля 2016
    Премьера (РФ): 31 марта 2016, «Наше Кино»
    Описание: Живет себе на свете скромная девушка Алена, работает в библиотеке и мечтает сыграть Джульетту в самодеятельном театре. Она и представить себе не может, что буквально завтра ее жизнь кардинально изменится. Столкнувшись на улице с шикарной блондинкой, она теряет сознание и… приходит в себя в больнице… в чужом теле.-Качество исходника: WEB-DL 1080p (NNMClub)
    Качество: WEB-DL
    Тип: HD (1080p)
    Контейнер: M4V
    Видео: H.264, 1920x804, 2.40:1, 4 452 Kbps, 24.000 fps
    Аудио 1: Русский/Оригинальная дорожка , AAC / 2.0 / 158 Kbps / 48.0 KHz
    Аудио 2: Русский/Оригинальная дорожка , AC-3 / 5.1 / 384 Kbps / 48.0 KHz
    -

    iTunes Meta Tags

    Sort Name: Помню – не помню!
    XID: Apple:vendor_id:2016-840918
    contentID: 1100393559
    Copyright: © 2016 Наше Кино
    Screenwriters: Василий Ровенский
    Producers: Василий Ровенский, Антонина Руже
    Director: Василий Ровенский
    Cast: Наталия Медведева, Полина Максимова, Константин Крюков, Людмила Артемьева, Анна Ардова, Александр Демидов, Сергей Бадюк, Вадим Демчог, Анна Хилькевич, Дмитрий Хрусталев
    Studio: Кинофирма
    Rating: 134
    Long Description: Живет себе на свете скромная девушка Алена, работает в библиотеке и мечтает сыграть Джульетту в самодеятельном театре. Она и представить себе не может, что буквально завтра ее жизнь кардинально изменится. Столкнувшись на улице с шикарной блондинкой, она теряет сознание и... приходит в себя в больнице... в чужом теле.
    Description: Живет себе на свете скромная девушка Алена, работает в библиотеке и мечтает сыграть Джульетту в самодеятельном театре. Она и представить себе не может, что буквально завтра ее жизнь кардинально изменится. Столкнувшись на улице с шикарной блондинкой, она теряет сознание и... приходит в себя в больнице... в чужом теле.
    Release Date: 2016-04-08T08:00:00Z
    Genre: Русское кино
    Artist: Василий Ровенский
    Name: Помню – не помню!

    MediaInfo

    General
    Complete name : /Users/imac/HandBrake/Pomnyu.ne.pomnyu.WEB-DL.1080p.m4v
    Format : MPEG-4
    Codec ID : M4V  (M4V /M4A /mp42/isom)
    File size : 2.64 GiB
    Duration : 1h 15mn
    Overall bit rate mode : Variable
    Overall bit rate : 5 002 Kbps
    Movie name : Помню – не помню!
    Performer : Василий Ровенский
    Director : Василий Ровенский
    Actor : Наталия Медведева / Полина Максимова / Константин Крюков / Людмила Артемьева / Анна Ардова / Александр Демидов / Сергей Бадюк / Вадим Демчог / Анна Хилькевич / Дмитрий Хрусталев
    Screenplay by : Василий Ровенский
    Producer : Василий Ровенский / Антонина Руже
    Production studio : Кинофирма
    Genre : Русское кино
    ContentType : Short Film
    Description : Живет себе на свете скромная девушка Алена, работает в библиотеке и мечтает сыграть Джульетту в самодеятельном театре. Она и представить себе не может, что буквально завтра ее жизнь кардинально изменится. Столкнувшись на улице с шикарной блондинкой, она теряет сознание и... приходит в себя в больнице... в чужом теле.
    Recorded date : UTC 2016-04-08 08:00:00
    Encoded date : UTC 2016-04-29 08:24:24
    Tagged date : UTC 2016-04-29 09:02:45
    Copyright : © 2016 Наше Кино
    Cover : Yes
    Rating : None
    Title/Sort : Помню – не помню!
    LongDescription : Живет себе на свете скромная девушка Алена, работает в библиотеке и мечтает сыграть Джульетту в самодеятельном театре. Она и представить себе не может, что буквально завтра ее жизнь кардинально изменится. Столкнувшись на улице с шикарной блондинкой, она теряет сознание и... приходит в себя в больнице... в чужом теле.
    AppleStoreCatalogID : 1100393559
    Vendor : Apple:vendor_id:2016-840918
    ContentRating : ru-movie|12+|200|
    Video #1
    ID : 1
    Format : AVC
    Format/Info : Advanced Video Codec
    Format profile : High@L4
    Format settings, CABAC : Yes
    Format settings, ReFrames : 5 frames
    Codec ID : avc1
    Codec ID/Info : Advanced Video Coding
    Duration : 1h 15mn
    Bit rate : 4 452 Kbps
    Width : 1 920 pixels
    Height : 804 pixels
    Display aspect ratio : 2.40:1
    Frame rate mode : Variable
    Frame rate : 24.000 fps
    Minimum frame rate : 23.810 fps
    Maximum frame rate : 24.390 fps
    Color space : YUV
    Chroma subsampling : 4:2:0
    Bit depth : 8 bits
    Scan type : Progressive
    Bits/(Pixel*Frame) : 0.120
    Stream size : 2.35 GiB (89%)
    Title : Main Program
    Language : Russian
    Encoded date : UTC 2016-04-29 08:24:24
    Tagged date : UTC 2016-04-29 08:25:36
    Color range : Limited
    Color primaries : BT.709
    Transfer characteristics : BT.709
    Matrix coefficients : BT.709
    Menus : 4,5
    Video #2
    ID : 5
    Format : JPEG
    Codec ID : jpeg
    Duration : 1h 15mn
    Bit rate mode : Variable
    Bit rate : 1 046 bps
    Width : 640 pixels
    Height : 268 pixels
    Display aspect ratio : 2.40:1
    Frame rate mode : Variable
    Frame rate : 0.003 fps
    Minimum frame rate : 0.001 fps
    Maximum frame rate : 0.003 fps
    Color space : YUV
    Chroma subsampling : 4:2:0
    Bit depth : 8 bits
    Compression mode : Lossy
    Bits/(Pixel*Frame) : 2.033
    Stream size : 511 KiB (0%)
    Title : Chapter Images
    Language : Russian
    Default : No
    Encoded date : UTC 2016-04-29 08:25:40
    Tagged date : UTC 2016-04-29 08:25:41
    Menu For : 1
    Audio #1
    ID : 2
    Format : AAC
    Format/Info : Advanced Audio Codec
    Format profile : LC
    Codec ID : 40
    Duration : 1h 15mn
    Bit rate mode : Variable
    Bit rate : 158 Kbps
    Maximum bit rate : 220 Kbps
    Channel(s) : 2 channels
    Channel positions : Front: L R
    Sampling rate : 48.0 KHz
    Frame rate : 46.875 fps (1024 spf)
    Compression mode : Lossy
    Stream size : 85.2 MiB (3%)
    Title : Russian Stereo
    Language : Russian
    Default : Yes
    Alternate group : 1
    Encoded date : UTC 2016-04-29 08:24:24
    Tagged date : UTC 2016-04-29 08:24:27
    Fallback From : 3
    Audio #2
    ID : 3
    Format : AC-3
    Format/Info : Audio Coding 3
    Mode extension : CM (complete main)
    Format settings, Endianness : Big
    Codec ID : ac-3
    Duration : 1h 15mn
    Bit rate mode : Constant
    Bit rate : 384 Kbps
    Channel(s) : 6 channels
    Channel positions : Front: L C R, Side: L R, LFE
    Sampling rate : 48.0 KHz
    Frame rate : 31.250 fps (1536 spf)
    Bit depth : 16 bits
    Compression mode : Lossy
    Stream size : 207 MiB (8%)
    Title : Russian DD 5.1
    Language : Russian
    Default : Inherited From: 2
    Alternate group : 1
    Encoded date : UTC 2016-04-29 08:24:24
    Tagged date : UTC 2016-04-29 08:25:36
    Fallback To : 2
    Menu #1
    00:00:00.000 : Глава 1
    00:05:14.333 : Глава 2
    00:11:59.749 : Глава 3
    00:18:11.499 : Глава 4
    00:23:58.582 : Глава 5
    00:29:02.707 : Глава 6
    00:34:57.665 : Глава 7
    00:40:04.623 : Глава 8
    00:45:29.623 : Глава 9
    00:51:28.456 : Глава 10
    00:56:31.831 : Глава 11
    01:03:10.664 : Глава 12
    Menu #2
    ID : 4
    Codec ID : text
    Duration : 1h 15mn
    Language : Russian
    Encoded date : UTC 2016-04-29 08:25:37
    Tagged date : UTC 2016-04-29 08:25:37
    Menu For : 1
    00:00:00.000 : Глава 1
    00:05:14.333 : Глава 2
    00:11:59.749 : Глава 3
    00:18:11.499 : Глава 4
    00:23:58.582 : Глава 5
    00:29:02.707 : Глава 6
    00:34:57.665 : Глава 7
    00:40:04.623 : Глава 8
    00:45:29.623 : Глава 9
    00:51:28.456 : Глава 10
    00:56:31.831 : Глава 11
    01:03:10.664 : Глава 12
    Bit rate mode : VBR

    Скриншоты

    -

    Релиз подготовлен для просмотра на Apple TV, iPad, iPhone, iPod Touch.
    Для просмотра данного релиза на компьютере с ОС Windows рекомендуется использовать VLC media player
    Скачать .torrent

    Скачать торрент-файл бесплатно и на максимальной скорости!

    Как скачивать? · Что такое торрент? · Рейтинг и ограничения

    !ВНИМАНИЕ!
    Сайт не распространяет и не хранит электронные версии произведений, а занимается лишь лишь предоставлением доступа к создаваемому пользователями каталогу ссылок на торрент-файлы, которые содержат только списки хеш-сумм, убедительная просьба с жалобами обращаться напрямую к пользователю. Файлы для обмена на трекере предоставлены пользователями сайта, и администрация не несёт ответственности за их содержание. Просьба не заливать файлы, защищенные авторскими правами, а также файлы нелегального содержания!


    _________________
    [Профиль] [ЛС]
    Показать сообщения:    
    Ответить на тему

    Текущее время: Сегодня, в 14:01

    Часовой пояс: GMT + 2



    Вы не можете начинать темы
    Вы не можете отвечать на сообщения
    Вы не можете редактировать свои сообщения
    Вы не можете удалять свои сообщения
    Вы не можете голосовать в опросах
    Вы не можете прикреплять файлы к сообщениям
    Вы не можете скачивать файлы