BitTorrentTracker PerecTracker.org
BitTorrentTracker PerecTracker.org
    
Регистрация  ·  Вход
 
 · 
Забыли пароль?

  • Никому не известный / Un illustre inconnu (Матье Делапорт) [2014, Франция, Бельгия, триллер, драма, HDRip] VO

    Ответить на тему
     
    Автор Сообщение

    Light

    Создавать темы 29-Апр-2016 13:48

           

    [Цитировать]

    Никому не известный / Un illustre inconnu
    Страна: Франция, Бельгия
    Жанр: триллер, драма
    Год выпуска: 2014
    Продолжительность: 01:57:38
    Перевод: Одноголосый закадровый (перевод Professor, закадровый текст читал zamez)
    Cубтитры: нет
    Режиссер: Матье Делапорт
    В ролях: Матье Кассовиц, Мари-Жозе Кроз, Эрик Каравака, Шиван Финнеран, Филипп Дюкло, Оливье Рабурден, Женевьев Мниш, Бернар Мюра
    Описание: Простой французский риэлтор Себастьян Николя живет весьма скучно. У него нет ни семьи, ни детей, ни даже подруги для временного романа. Все, что есть у Себастьяна — работа, мать и сестра, которая успела выйти замуж, родить ребенка и значительно преуспеть, в отличие от брата. Долгое время Себастьян жил и делал то, что от него ждали, но за долгие годы он очень устал. Больше всего он хочет измениться, правда делает это по-своему.
    Духовным изменениям Себастьян предпочитает физические. Талантливо владея искусством грима он перевоплощается в других людей, с которыми ему приходилось общаться.
    Сэмпл: http://multi-up.com/1099257
    Качество видео: HDRip
    Формат видео: AVI
    Видео: XviD, 720x304, 24fps, 1269kbps (рип B89)
    Аудио: Dolby AC3 48000Hz 6ch 384kbps

    MediaInfo

    General
    Complete name Un.Illustre.Inconnu.2014.HDRip.AC3.Rus.avi
    Format : AVI
    Format/Info : Audio Video Interleave
    File size : 1.37 GiB
    Duration : 1h 57mn
    Overall bit rate : 1 662 Kbps
    Writing application : VirtualDubMod 1.5.10.2 (build 2540/release)
    Writing library : VirtualDubMod build 2540/release
    Video
    ID : 0
    Format : MPEG-4 Visual
    Format profile : Advanced Simple@L5
    Format settings, BVOP : 2
    Format settings, QPel : No
    Format settings, GMC : No warppoints
    Format settings, Matrix : Default (H.263)
    Muxing mode : Packed bitstream
    Codec ID : XVID
    Codec ID/Hint : XviD
    Duration : 1h 57mn
    Bit rate : 1 269 Kbps
    Width : 720 pixels
    Height : 304 pixels
    Display aspect ratio : 2.35:1
    Frame rate : 24.000 fps
    Color space : YUV
    Chroma subsampling : 4:2:0
    Bit depth : 8 bits
    Scan type : Progressive
    Compression mode : Lossy
    Bits/(Pixel*Frame) : 0.242
    Stream size : 1.04 GiB (76%)
    Writing library : XviD 65
    Audio
    ID : 1
    Format : AC-3
    Format/Info : Audio Coding 3
    Mode extension : CM (complete main)
    Format settings, Endianness : Big
    Codec ID : 2000
    Duration : 1h 57mn
    Bit rate mode : Constant
    Bit rate : 384 Kbps
    Channel(s) : 6 channels
    Channel positions : Front: L C R, Side: L R, LFE
    Sampling rate : 48.0 KHz
    Bit depth : 16 bits
    Compression mode : Lossy
    Stream size : 323 MiB (23%)
    Alignment : Split accross interleaves
    Interleave, duration : 42 ms (1.00 video frame)
    Interleave, preload duratio : 500 ms

    Скриншот c названием фильма

    Скриншоты

    Скачать .torrent

    Скачать торрент-файл бесплатно и на максимальной скорости!

    Как скачивать? · Что такое торрент? · Рейтинг и ограничения

    !ВНИМАНИЕ!
    Сайт не распространяет и не хранит электронные версии произведений, а занимается лишь лишь предоставлением доступа к создаваемому пользователями каталогу ссылок на торрент-файлы, которые содержат только списки хеш-сумм, убедительная просьба с жалобами обращаться напрямую к пользователю. Файлы для обмена на трекере предоставлены пользователями сайта, и администрация не несёт ответственности за их содержание. Просьба не заливать файлы, защищенные авторскими правами, а также файлы нелегального содержания!


    _________________
    [Профиль] [ЛС]
    Показать сообщения:    
    Ответить на тему

    Текущее время: Сегодня, в 11:53

    Часовой пояс: GMT + 2



    Вы не можете начинать темы
    Вы не можете отвечать на сообщения
    Вы не можете редактировать свои сообщения
    Вы не можете удалять свои сообщения
    Вы не можете голосовать в опросах
    Вы не можете прикреплять файлы к сообщениям
    Вы не можете скачивать файлы