BitTorrentTracker PerecTracker.org
BitTorrentTracker PerecTracker.org
    
Регистрация  ·  Вход
 
 · 
Забыли пароль?

  • Оз: Великий и Ужасный / Oz the Great and Powerful (Сэм Рэйми / Sam Raimi) [2013, США, фэнтези, приключения, комедия, семейный, BDRip-AVC] Dub + Sub Rus, Ukr, Eng

    Ответить на тему
     
    Автор Сообщение

    Light

    Создавать темы 29-Апр-2016 01:24

           

    [Цитировать]

    Оз: Великий и Ужасный / Oz the Great and Powerful-Страна: США
    Жанр: фэнтези, приключения, комедия, семейный
    Год выпуска: 2013
    Продолжительность: 02:10:29
    Перевод: Профессиональный (дублированный)
    Cубтитры: русские, украинские, английские-Режиссер: Сэм Рэйми / Sam Raimi-В ролях: Джеймс Франко, Мила Кунис, Рейчел Вайс, Мишель Уильямс, Зак Брафф, Билл Коббс, Джои Кинг, Тони Кокс, Стивен Р. Харт, Эбигейл Спенсер.-Описание: Оскар Диггс — молодой фокусник, зарабатывающий себе на жизнь не столько волшебством, сколько мошенничеством. Однажды он попадает в эпицентр сильного урагана, который переносит его в удивительное место. Оказавшись в мире с уникальной природой и невиданными существами, Оскар думает, что все это всего лишь сон, но вскоре он узнает, что попал в волшебную страну Оз. Молодой человек понимает, что здесь для него открываются огромные перспективы, ведь местные жители очень наивны. Однако, Диггс вынужден изменить свои планы после того, как он встретился с несколькими колдуньями. После этого ему становится известно, что жители этой страны уже давно ждут Великого волшебника, который, согласно древнему пророчеству, должен решить давний конфликт и вернуть мир. Никто из жителей не знает, что он всего лишь человек, а не могущественный волшебник, поэтому очень надеются на его помощь. Оскару предстоит обучиться магии, чтобы не подвести жителей Изумрудного города и всей волшебной страны...-Релиз от: HELLYWOOD
    Автор рипа: potroks-Качество видео: BDRip-AVC (источник: Oz the Great and Powerful | Blu-ray Remux | 1080p | HiFi)
    Формат видео: MKV | Sample
    Видео: 960x400 (2.40:1), 23.976 fps, x264@L4.1 ~1954 kbps avg, 0.21 bit/pixel
    Аудио: 48 kHz, AC3 Dolby Digital, 3/2 (L,C,R,l,r) + LFE ch, ~448.00 kbps avg | BD EUR
    Субтиты: русские форсированные и полные, украинские форсированные и полные, английские полные | srt*

    Инфо

    Формат : Matroska
    Версия формата : Version 4 / Version 2
    Размер файла : 2,19 Гбайт
    Продолжительность : 2 ч. 10 м.
    Общий поток : 2401 Кбит/сек
    Название фильма : -=POTROKS=-
    Дата кодирования : UTC 2016-04-27 18:12:57
    Программа кодирования : mkvmerge v9.0.0 ('Power to progress') 32bit
    Библиотека кодирования : libebml v1.3.3 + libmatroska v1.4.4
    Видео
    Идентификатор : 1
    Формат : AVC
    Формат/Информация : Advanced Video Codec
    Профиль формата : High@L4.1
    Параметр CABAC формата : Да
    Параметр ReFrames формата : 12 кадров
    Идентификатор кодека : V_MPEG4/ISO/AVC
    Продолжительность : 2 ч. 10 м.
    Битрейт : 1954 Кбит/сек
    Ширина : 960 пикселей
    Высота : 400 пикселей
    Соотношение сторон : 2,40:1
    Режим частоты кадров : Постоянный
    Частота кадров : 23,976 кадра/сек
    Цветовое пространство : YUV
    Субдискретизация насыщенности : 4:2:0
    Битовая глубина : 8 бит
    Тип развёртки : Прогрессивная
    Бит/(Пиксели*Кадры) : 0.212
    Размер потока : 1,78 Гбайт (81%)
    Заголовок : Oz the Great and Powerful
    Библиотека кодирования : x264 core 125 r2208 d9d2288
    Настройки программы : cabac=1 / ref=12 / deblock=1:-3:-2 / analyse=0x3:0x133 / me=umh / subme=9 / psy=1 / psy_rd=1.03:0.00 / mixed_ref=1 / me_range=32 / chroma_me=1 / trellis=2 / 8x8dct=1 / cqm=0 / deadzone=21,11 / fast_pskip=0 / chroma_qp_offset=-2 / threads=9 / lookahead_threads=1 / sliced_threads=0 / nr=0 / decimate=1 / interlaced=0 / bluray_compat=0 / constrained_intra=0 / bframes=13 / b_pyramid=2 / b_adapt=2 / b_bias=0 / direct=3 / weightb=1 / open_gop=0 / weightp=2 / keyint=240 / keyint_min=23 / scenecut=40 / intra_refresh=0 / rc_lookahead=150 / rc=2pass / mbtree=1 / bitrate=1954 / ratetol=1.0 / qcomp=0.70 / qpmin=0 / qpmax=69 / qpstep=4 / cplxblur=20.0 / qblur=0.5 / vbv_maxrate=20000 / vbv_bufsize=20000 / nal_hrd=none / ip_ratio=1.35 / aq=1:0.80
    Язык : English
    Default : Да
    Forced : Нет
    Аудио
    Идентификатор : 2
    Формат : AC-3
    Формат/Информация : Audio Coding 3
    Идентификатор кодека : A_AC3
    Продолжительность : 2 ч. 9 м.
    Битрейт : 448 Кбит/сек
    Каналы : 6 каналов
    Частота : 48,0 КГц
    Частота кадров : 31,250 кадров/сек (1536 spf)
    Метод сжатия : С потерями
    Размер потока : 415 Мбайт (19%)
    Заголовок : Dub | DD 5.1 @ 448 kbps - Blu-ray EUR
    Язык : Russian
    Default : Да
    Forced : Нет
    Текст #1
    Идентификатор : 3
    Формат : UTF-8
    Идентификатор кодека : S_TEXT/UTF8
    Идентификатор кодека/Информация : UTF-8 Plain Text
    Продолжительность : 2 ч. 3 м.
    Битрейт : 0 бит/сек
    Count of elements : 7
    Размер потока : 196 байт (0%)
    Заголовок : Forced
    Язык : Russian
    Default : Да
    Forced : Нет
    Текст #2
    Идентификатор : 4
    Формат : UTF-8
    Идентификатор кодека : S_TEXT/UTF8
    Идентификатор кодека/Информация : UTF-8 Plain Text
    Продолжительность : 2 ч. 3 м.
    Битрейт : 71 бит/сек
    Count of elements : 1587
    Размер потока : 65,1 Кбайт (0%)
    Язык : Russian
    Default : Нет
    Forced : Нет
    Текст #3
    Идентификатор : 5
    Формат : UTF-8
    Идентификатор кодека : S_TEXT/UTF8
    Идентификатор кодека/Информация : UTF-8 Plain Text
    Продолжительность : 1 ч. 33 м.
    Битрейт : 0 бит/сек
    Count of elements : 4
    Размер потока : 121 байт (0%)
    Заголовок : Forced
    Язык : Ukrainian
    Default : Нет
    Forced : Нет
    Текст #4
    Идентификатор : 6
    Формат : UTF-8
    Идентификатор кодека : S_TEXT/UTF8
    Идентификатор кодека/Информация : UTF-8 Plain Text
    Продолжительность : 2 ч. 3 м.
    Битрейт : 75 бит/сек
    Count of elements : 1592
    Размер потока : 68,2 Кбайт (0%)
    Язык : Ukrainian
    Default : Нет
    Forced : Нет
    Текст #5
    Идентификатор : 7
    Формат : UTF-8
    Идентификатор кодека : S_TEXT/UTF8
    Идентификатор кодека/Информация : UTF-8 Plain Text
    Продолжительность : 2 ч. 7 м.
    Битрейт : 49 бит/сек
    Count of elements : 1708
    Размер потока : 46,1 Кбайт (0%)
    Язык : English
    Default : Нет
    Forced : Нет
    Текст #6
    Идентификатор : 8
    Формат : UTF-8
    Идентификатор кодека : S_TEXT/UTF8
    Идентификатор кодека/Информация : UTF-8 Plain Text
    Продолжительность : 2 ч. 9 м.
    Битрейт : 55 бит/сек
    Count of elements : 2011
    Размер потока : 52,3 Кбайт (0%)
    Заголовок : SDH
    Язык : English
    Default : Нет
    Forced : Нет
    Текст #7
    Идентификатор : 9
    Формат : UTF-8
    Идентификатор кодека : S_TEXT/UTF8
    Идентификатор кодека/Информация : UTF-8 Plain Text
    Продолжительность : 2 ч. 9 м.
    Битрейт : 70 бит/сек
    Count of elements : 2011
    Размер потока : 67,1 Кбайт (0%)
    Заголовок : SDH-COLORED
    Язык : English
    Default : Нет
    Forced : Нет
    Меню
    00:00:00.000 : en:1. Opening Titles
    00:02:37.699 : en:2. Kansas, 1905
    00:06:16.960 : en:3. The Show
    00:09:57.555 : en:4. Make Me Walk
    00:11:32.692 : en:5. A Great Man
    00:15:20.753 : en:6. The Escape
    00:17:47.191 : en:7. The Tornado
    00:20:29.478 : en:8. Where Am I?
    00:24:01.982 : en:9. Theodora the Good Witch
    00:24:49.780 : en:10. River Fairies
    00:27:01.662 : en:11. The Wicked Witches' Minions
    00:29:37.359 : en:12. May I Have this Dance?
    00:32:43.420 : en:13. The Lion
    00:34:30.193 : en:14. Finley, the Loyal Servant
    00:37:22.657 : en:15. Sourpuss
    00:38:57.377 : en:16. Evanora, The Royal Advisor
    00:40:39.145 : en:17. I'm Not Wicked!
    00:42:09.944 : en:18. Show Me Now
    00:42:52.445 : en:19. The Royal Treasure of Oz
    00:45:33.481 : en:20. No Turning Back
    00:47:22.840 : en:21. China Town
    00:48:32.409 : en:22. China Girl
    00:53:29.832 : en:23. Crossroads
    00:55:22.653 : en:24. The Dark Forest
    00:57:15.932 : en:25. The Plan
    00:59:10.839 : en:26. Glinda the Good
    01:02:05.263 : en:27. Broken Heart
    01:05:33.221 : en:28. The Prophecy
    01:06:21.102 : en:29. She Knows
    01:09:55.775 : en:30. Bubble Voyage
    01:12:20.836 : en:31. Wizard Enough
    01:15:37.783 : en:32. One Bite
    01:18:20.321 : en:33. The Good People of Oz
    01:19:47.783 : en:34. The Munchkin Song
    01:21:27.883 : en:35. Theodora the Wicked
    01:26:16.171 : en:36. Leaving
    01:28:08.783 : en:37. Tuck Me In
    01:30:33.219 : en:38. Battle Plan
    01:34:24.117 : en:39. Few But Mighty
    01:36:57.437 : en:40. The Guard Gate
    01:37:35.975 : en:41. The Battle Begins
    01:41:30.876 : en:42. Stick With the Plan
    01:42:30.394 : en:43. Glinda in Chains
    01:45:51.762 : en:44. Give Up, Glinda
    01:48:33.424 : en:45. No One Defies Oz!
    01:51:23.802 : en:46. Unleash the Stars
    01:54:26.318 : en:47. Witch Fight
    01:55:54.072 : en:48. What Have You Done?
    01:57:58.405 : en:49. Forever Free
    01:59:34.417 : en:50. Gifts
    02:02:49.571 : en:51. What Do You See?
    02:04:32.757 : en:52. Credits

    Скриншоты

    Скачать .torrent

    Скачать торрент-файл бесплатно и на максимальной скорости!

    Как скачивать? · Что такое торрент? · Рейтинг и ограничения

    !ВНИМАНИЕ!
    Сайт не распространяет и не хранит электронные версии произведений, а занимается лишь лишь предоставлением доступа к создаваемому пользователями каталогу ссылок на торрент-файлы, которые содержат только списки хеш-сумм, убедительная просьба с жалобами обращаться напрямую к пользователю. Файлы для обмена на трекере предоставлены пользователями сайта, и администрация не несёт ответственности за их содержание. Просьба не заливать файлы, защищенные авторскими правами, а также файлы нелегального содержания!


    _________________
    [Профиль] [ЛС]
    Показать сообщения:    
    Ответить на тему

    Текущее время: Сегодня, в 11:57

    Часовой пояс: GMT + 2



    Вы не можете начинать темы
    Вы не можете отвечать на сообщения
    Вы не можете редактировать свои сообщения
    Вы не можете удалять свои сообщения
    Вы не можете голосовать в опросах
    Вы не можете прикреплять файлы к сообщениям
    Вы не можете скачивать файлы