BitTorrentTracker PerecTracker.org
BitTorrentTracker PerecTracker.org
    
Регистрация  ·  Вход
 
 · 
Забыли пароль?

  • Мандарины / Mandariinid / Tangerines (Заза Урушадзе / Zaza Urushadze) [2013, Эстония, Грузия, драма, военный, BDRip] Original (Rus, Est) + Sub (Rus)

    Ответить на тему
     
    Автор Сообщение

    Light

    Создавать темы 29-Апр-2016 01:24

           

    [Цитировать]

    Мандарины / Mandariinid / Tangerines--Страна: Эстония, Грузия
    Жанр: Драма, военный
    Продолжительность: 01:22:59
    Год выпуска: 2013
    -Перевод: Не требуется
    Оригинальная аудиодорожка: русско-эстонская
    Субтитры: русские (форсированные на эстонскую речь, внешние, srt)
    Режиссёр: Заза Урушадзе / Zaza Urushadze
    -В ролях:
    Лембит Ульфсак, Георгий Накашидзе, Элмо Нюганен, Миша Месхи, Райво Трасс, Зура Бегалишвили, Давид Хахидзе, Джано Изория, Гия Гогишвили, Вамех Янгидзе
    -Описание:
    1992 год, Абхазия. Древнее эстонское село, расположенное в живописном месте между горами и морем, опустело - эстонцы вернулись на свою историческую родину. Остались только хозяин товарного цеха Иво, его сосед, владелец мандариновой плантации Маргус и местный доктор Юхан, который уже готов покинуть селение. Маргус также собирается уехать в Эстонию, но лишь после того, как будет собран урожай мандаринов. Война доходит до села, происходит боевое столкновение между грузинами и абхазцами. После боя Иво и Маргус находят одного оставшегося в живых чеченского наёмника по имени Ахмед, который воюет на абхазской стороне. Иво забирает Ахмеда к себе домой, чтобы его вылечить. Ночью, хороня погибших, Маргус обнаруживает, что, несмотря на тяжелое ранение, в бою выжил и один грузин - молодой парень Ника. Его тоже относят в дом Иво. Так под одной крышей оказываются бойцы противоборствующих сторон...
    -Релиз групп All Films и RG Torrents.ru-Сэмпл: https://www.sendspace.com/file/tsog3d-Качество: BDRip - Исходник (Спасибо порошков)
    Формат: AVI
    Видео: 720x304 (2.37:1), 25 fps, XviD build 73 ~1902 kbps avg, 0.35 bit/pixel
    Аудио: 48 kHz, AC3 Dolby Digital, 3/2 (L,C,R,l,r) + LFE ch, ~448 kbps
    -

    Отчёт MediaInfo

    General
    Complete name : C:\Users\Максим\Desktop\Mandariinid.2013.BDRip.polkera\Mandariinid.2013.BDRip.polkera.avi
    Format : AVI
    Format/Info : Audio Video Interleave
    File size : 1.37 GiB
    Duration : 1h 22mn
    Overall bit rate : 2 360 Kbps
    Writing application : VirtualDubMod 1.5.10.3 | www.virtualdub-fr.org || (build 2550/release)
    Writing library : VirtualDubMod build 2550/release
    Video
    Format : MPEG-4 Visual
    Format profile : Streaming Video@L1
    Format settings, BVOP : Yes
    Format settings, QPel : No
    Format settings, GMC : No warppoints
    Format settings, Matrix : Custom
    Codec ID : XVID
    Codec ID/Hint : XviD
    Duration : 1h 22mn
    Bit rate : 1 903 Kbps
    Width : 720 pixels
    Height : 304 pixels
    Display aspect ratio : 2.35
    Frame rate : 25.000 fps
    Resolution : 24 bits
    Colorimetry : 4:2:0
    Scan type : Progressive
    Bits/(Pixel*Frame) : 0.348
    Stream size : 1.10 GiB (81%)
    Writing library : XviD 73
    Audio
    Format : AC-3
    Format/Info : Audio Coding 3
    Codec ID : 2000
    Duration : 1h 22mn
    Bit rate mode : Constant
    Bit rate : 448 Kbps
    Channel(s) : 6 channels
    Channel positions : Front: L C R, Surround: L R, LFE
    Sampling rate : 48.0 KHz
    Stream size : 266 MiB (19%)
    Alignment : Split accross interleaves
    Interleave, duration : 40 ms (1.00 video frame)
    Interleave, preload duration : 500 ms

    -

    Скриншоты

    -
    |
    Скачать .torrent

    Скачать торрент-файл бесплатно и на максимальной скорости!

    Как скачивать? · Что такое торрент? · Рейтинг и ограничения

    !ВНИМАНИЕ!
    Сайт не распространяет и не хранит электронные версии произведений, а занимается лишь лишь предоставлением доступа к создаваемому пользователями каталогу ссылок на торрент-файлы, которые содержат только списки хеш-сумм, убедительная просьба с жалобами обращаться напрямую к пользователю. Файлы для обмена на трекере предоставлены пользователями сайта, и администрация не несёт ответственности за их содержание. Просьба не заливать файлы, защищенные авторскими правами, а также файлы нелегального содержания!


    _________________
    [Профиль] [ЛС]
    Показать сообщения:    
    Ответить на тему

    Текущее время: Сегодня, в 00:24

    Часовой пояс: GMT + 2



    Вы не можете начинать темы
    Вы не можете отвечать на сообщения
    Вы не можете редактировать свои сообщения
    Вы не можете удалять свои сообщения
    Вы не можете голосовать в опросах
    Вы не можете прикреплять файлы к сообщениям
    Вы не можете скачивать файлы