BitTorrentTracker PerecTracker.org
BitTorrentTracker PerecTracker.org
    
Регистрация  ·  Вход
 
 · 
Забыли пароль?

  • Да здравствует Цезарь! / Hail, Caesar! (Джоэл Коэн / Joel Coen ) [2016, Великобритания, США, Япония, Комедия, детектив, WEB-DL, HD (720p)] DUB + Original

    Ответить на тему
     
    Автор Сообщение

    rechyn

    Создавать темы 28-Апр-2016 17:14

           

    [Цитировать]

    Да здравствует Цезарь! / Hail, Caesar!
    «Lights. Camera. Abduction»
    6.718 / 10 6.70 / 10
    -Год выпуска: 2016
    Страна: Великобритания, США, Япония
    Жанр: Комедия, детектив
    Продолжительность: 01:46:06
    Перевод: Дублированный (iTunes)
    Оригинальная аудиодорожка: Есть
    Cубтитры: Нет
    Режиссёр: Джоэл Коэн
    Сценарий: Джоэл Коэн, Итан Коэн
    Продюсер: Тим Беван, Итан Коэн, Джоэл Коэн
    Оператор: Роджер Дикинс
    Композитор: Картер Бёруэлл
    Художник: Джесс Гончор, Кара Броуер, Доун Свидерский
    Монтаж: Итан Коэн, Джоэл Коэн
    В ролях: Джош Бролин, Джордж Клуни, Олден Эренрайк, Рэйф Файнс, Скарлетт Йоханссон, Тильда Суинтон, Фрэнсис МакДорманд, Ченнинг Татум, Джона Хилл, Вероника Осорио
    Бюджет: $22 000 000
    Сборы в США: $30 080 225
    Сборы в мире: + $31 810 037 = $61 890 262
    Сборы в России: $1 049 527
    Мировая премьера: 1 февраля 2016
    Премьера (РФ): 3 марта 2016, «UPI»
    Описание: Добро пожаловать в Голливуд — империю блеска, роскоши и порока. Здесь обитают кумиры миллионов. Что ни день — пиршество для светских хроникеров. И вот однажды исчезает исполнитель главной роли в фильме «Да здравствует Цезарь!». Ни жена, ни многочисленные любовницы не знают, где он. И теперь продюсера студии ждет веселый денек, ведь он должен найти звезду раньше репортеров…-Качество исходника: WEB-DL 720p (NNMClub)
    Качество: WEB-DL
    Тип: HD (720p)
    Контейнер: M4V
    Видео: H.264, 1280x690, 1.85:1, 3 928 Kbps, 23.976 (23976/1000) fps
    Аудио 1: Русский/Дублированный (iTunes), AAC / 2.0 / 157 Kbps / 48.0 KHz
    Аудио 2: Английский/Оригинальная дорожка , AAC / 2.0 / 158 Kbps / 48.0 KHz
    Аудио 3: Русский/Дублированный (iTunes), AC-3 / 5.1 / 384 Kbps / 48.0 KHz
    -

    iTunes Meta Tags

    Sort Name: Hail, Caesar!
    XID: Apple:vendor_id:2016-841335
    contentID: 1076005986
    Copyright: © 2016 Universal Studios. All Rights Reserved.
    Screenwriters: Джоэл Коэн, Итан Коэн
    Producers: Тим Беван, Итан Коэн, Джоэл Коэн
    Director: Итан Коэн, Джоэл Коэн
    Cast: Джош Бролин, Джордж Клуни, Олден Эренрайк, Рэйф Файнс, Скарлетт Йоханссон, Тильда Суинтон, Фрэнсис МакДорманд, Ченнинг Татум, Джона Хилл, Вероника Осорио, Владимир Антоник, Станислав Концевич, Станислав Тикунов, Алексей Иващенко, Татьяна Шитова
    Studio: Universal Pictures
    Rating: 4
    Long Description: Добро пожаловать в Голливуд - империю блеска, роскоши и порока. Здесь обитают кумиры миллионов. Что ни день - пиршество для светских хроникеров. И вот однажды исчезает исполнитель главной роли в фильме "Да здравствует Цезарь!". Ни жена, ни многочисленные любовницы не знают, где он. И теперь продюсера студии ждет веселый денек, ведь он должен найти звезду раньше репортеров...
    Description: Добро пожаловать в Голливуд - империю блеска, роскоши и порока. Здесь обитают кумиры миллионов. Что ни день - пиршество для светских хроникеров.
    Release Date: 2016-02-01T08:00:00Z
    Genre: Comedy
    Artist: Joel Coen & Ethan Coen
    Name: Hail, Caesar!

    MediaInfo

    General
    Complete name : /Users/imac/HandBrake/Hail.Caesar.WEB-DL.720p.m4v
    Format : MPEG-4
    Codec ID : M4V  (M4V /M4A /mp42/isom)
    File size : 3.44 GiB
    Duration : 1h 46mn
    Overall bit rate mode : Variable
    Overall bit rate : 4 637 Kbps
    Movie name : Hail, Caesar!
    Performer : Joel Coen & Ethan Coen
    Director : Итан Коэн / Джоэл Коэн
    Actor : Джош Бролин / Джордж Клуни / Олден Эренрайк / Рэйф Файнс / Скарлетт Йоханссон / Тильда Суинтон / Фрэнсис МакДорманд / Ченнинг Татум / Джона Хилл / Вероника Осорио / Владимир Антоник / Станислав Концевич / Станислав Тикунов / Алексей Иващенко / Татьяна Шитова
    Screenplay by : Джоэл Коэн / Итан Коэн
    Producer : Тим Беван / Итан Коэн / Джоэл Коэн
    Production studio : Universal Pictures
    Genre : Comedy
    ContentType : Short Film
    Description : Добро пожаловать в Голливуд - империю блеска, роскоши и порока. Здесь обитают кумиры миллионов. Что ни день - пиршество для светских хроникеров.
    Recorded date : UTC 2016-02-01 08:00:00
    Encoded date : UTC 2016-04-28 08:54:32
    Tagged date : UTC 2016-04-28 09:05:02
    Copyright : © 2016 Universal Studios. All Rights Reserved.
    Cover : Yes
    Rating : None
    Title/Sort : Hail, Caesar!
    LongDescription : Добро пожаловать в Голливуд - империю блеска, роскоши и порока. Здесь обитают кумиры миллионов. Что ни день - пиршество для светских хроникеров. И вот однажды исчезает исполнитель главной роли в фильме "Да здравствует Цезарь!". Ни жена, ни многочисленные любовницы не знают, где он. И теперь продюсера студии ждет веселый денек, ведь он должен найти звезду раньше репортеров...
    HDVideo : Yes
    AppleStoreCatalogID : 1076005986
    Vendor : Apple:vendor_id:2016-841335
    ContentRating : mpaa|PG-13|300|
    Video #1
    ID : 1
    Format : AVC
    Format/Info : Advanced Video Codec
    Format profile : High@L3.1
    Format settings, CABAC : No
    Format settings, ReFrames : 2 frames
    Format settings, GOP : M=2, N=90
    Codec ID : avc1
    Codec ID/Info : Advanced Video Coding
    Duration : 1h 46mn
    Bit rate : 3 928 Kbps
    Width : 1 280 pixels
    Height : 690 pixels
    Display aspect ratio : 1.85:1
    Frame rate mode : Variable
    Frame rate : 23.976 (23976/1000) fps
    Minimum frame rate : 23.810 fps
    Maximum frame rate : 24.390 fps
    Color space : YUV
    Chroma subsampling : 4:2:0
    Bit depth : 8 bits
    Scan type : Progressive
    Bits/(Pixel*Frame) : 0.186
    Stream size : 2.91 GiB (85%)
    Title : Main Program
    Language : English
    Encoded date : UTC 2016-04-28 08:54:32
    Tagged date : UTC 2016-04-28 08:55:46
    Color range : Limited
    Color primaries : BT.709
    Transfer characteristics : BT.709
    Matrix coefficients : BT.709
    Menus : 5,6
    Video #2
    ID : 6
    Format : JPEG
    Codec ID : jpeg
    Duration : 1h 46mn
    Bit rate mode : Variable
    Bit rate : 1 319 bps
    Width : 640 pixels
    Height : 345 pixels
    Display aspect ratio : 1.85:1
    Frame rate mode : Variable
    Frame rate : 0.003 fps
    Minimum frame rate : 0.002 fps
    Maximum frame rate : 0.005 fps
    Color space : YUV
    Chroma subsampling : 4:2:0
    Bit depth : 8 bits
    Compression mode : Lossy
    Bits/(Pixel*Frame) : 1.991
    Stream size : 1.05 MiB (0%)
    Title : Chapter Images
    Language : English
    Default : No
    Encoded date : UTC 2016-04-28 08:55:53
    Tagged date : UTC 2016-04-28 08:55:53
    Menu For : 1
    Audio #1
    ID : 2
    Format : AAC
    Format/Info : Advanced Audio Codec
    Format profile : LC
    Codec ID : 40
    Duration : 1h 46mn
    Bit rate mode : Variable
    Bit rate : 157 Kbps
    Maximum bit rate : 245 Kbps
    Channel(s) : 2 channels
    Channel positions : Front: L R
    Sampling rate : 48.0 KHz
    Frame rate : 46.875 fps (1024 spf)
    Compression mode : Lossy
    Stream size : 119 MiB (3%)
    Title : Russian Stereo
    Language : Russian
    Default : Yes
    Alternate group : 1
    Encoded date : UTC 2016-04-28 08:54:32
    Tagged date : UTC 2016-04-28 08:54:54
    Fallback From : 4
    Audio #2
    ID : 3
    Format : AAC
    Format/Info : Advanced Audio Codec
    Format profile : LC
    Codec ID : 40
    Duration : 1h 46mn
    Bit rate mode : Variable
    Bit rate : 158 Kbps
    Maximum bit rate : 216 Kbps
    Channel(s) : 2 channels
    Channel positions : Front: L R
    Sampling rate : 48.0 KHz
    Frame rate : 46.875 fps (1024 spf)
    Compression mode : Lossy
    Stream size : 120 MiB (3%)
    Title : English Stereo
    Language : English
    Default : No
    Alternate group : 1
    Encoded date : UTC 2016-04-28 08:54:32
    Tagged date : UTC 2016-04-28 08:54:54
    Audio #3
    ID : 4
    Format : AC-3
    Format/Info : Audio Coding 3
    Mode extension : CM (complete main)
    Format settings, Endianness : Big
    Codec ID : ac-3
    Duration : 1h 46mn
    Bit rate mode : Constant
    Bit rate : 384 Kbps
    Channel(s) : 6 channels
    Channel positions : Front: L C R, Side: L R, LFE
    Sampling rate : 48.0 KHz
    Frame rate : 31.250 fps (1536 spf)
    Bit depth : 16 bits
    Compression mode : Lossy
    Stream size : 291 MiB (8%)
    Title : Russian DD 5.1
    Language : Russian
    Default : Inherited From: 2
    Alternate group : 1
    Encoded date : UTC 2016-04-28 08:54:32
    Tagged date : UTC 2016-04-28 08:54:54
    Fallback To : 2
    Menu #1
    00:00:00.000 : глава 1
    00:04:01.000 : глава 2
    00:09:40.000 : глава 3
    00:13:00.000 : глава 4
    00:17:36.000 : глава 5
    00:22:31.000 : глава 6
    00:29:57.000 : глава 7
    00:35:39.000 : глава 8
    00:41:51.000 : глава 9
    00:47:11.000 : глава 10
    00:50:42.000 : глава 11
    00:57:27.000 : глава 12
    01:01:19.000 : глава 13
    01:07:23.000 : глава 14
    01:14:04.000 : глава 15
    01:17:43.000 : глава 16
    01:22:40.000 : глава 17
    01:28:56.000 : глава 18
    01:33:52.000 : глава 19
    01:39:27.000 : глава 20
    Menu #2
    ID : 5
    Codec ID : text
    Duration : 1h 46mn
    Language : English
    Encoded date : UTC 2016-04-28 08:55:46
    Tagged date : UTC 2016-04-28 08:55:46
    Menu For : 1
    00:00:00.000 : глава 1
    00:04:01.000 : глава 2
    00:09:40.000 : глава 3
    00:13:00.000 : глава 4
    00:17:36.000 : глава 5
    00:22:31.000 : глава 6
    00:29:57.000 : глава 7
    00:35:39.000 : глава 8
    00:41:51.000 : глава 9
    00:47:11.000 : глава 10
    00:50:42.000 : глава 11
    00:57:27.000 : глава 12
    01:01:19.000 : глава 13
    01:07:23.000 : глава 14
    01:14:04.000 : глава 15
    01:17:43.000 : глава 16
    01:22:40.000 : глава 17
    01:28:56.000 : глава 18
    01:33:52.000 : глава 19
    01:39:27.000 : глава 20
    Bit rate mode : VBR

    Скриншоты

    -

    Релиз подготовлен для просмотра на Apple TV, iPad, iPhone, iPod Touch.
    Для просмотра данного релиза на компьютере с ОС Windows рекомендуется использовать VLC media player
    Скачать .torrent

    Скачать торрент-файл бесплатно и на максимальной скорости!

    Как скачивать? · Что такое торрент? · Рейтинг и ограничения

    !ВНИМАНИЕ!
    Сайт не распространяет и не хранит электронные версии произведений, а занимается лишь лишь предоставлением доступа к создаваемому пользователями каталогу ссылок на торрент-файлы, которые содержат только списки хеш-сумм, убедительная просьба с жалобами обращаться напрямую к пользователю. Файлы для обмена на трекере предоставлены пользователями сайта, и администрация не несёт ответственности за их содержание. Просьба не заливать файлы, защищенные авторскими правами, а также файлы нелегального содержания!


    _________________
    [Профиль] [ЛС]
    Показать сообщения:    
    Ответить на тему

    Текущее время: Сегодня, в 10:07

    Часовой пояс: GMT + 2



    Вы не можете начинать темы
    Вы не можете отвечать на сообщения
    Вы не можете редактировать свои сообщения
    Вы не можете удалять свои сообщения
    Вы не можете голосовать в опросах
    Вы не можете прикреплять файлы к сообщениям
    Вы не можете скачивать файлы