BitTorrentTracker PerecTracker.org
BitTorrentTracker PerecTracker.org
    
Регистрация  ·  Вход
 
 · 
Забыли пароль?

  • В лабиринте молчания / Im Labyrinth des Schweigens (Джулио Риччиарелли / Giulio Ricciarelli) [2014, Германия, история, драма, BDRip 720p] MVO (FocusStudio) + Original Ger + Sub Rus, Ger

    Ответить на тему
     
    Автор Сообщение

    Light

    Создавать темы 28-Апр-2016 13:03

           

    [Цитировать]

    -В лабиринте молчания / Im Labyrinth des Schweigens-Год выпуска: 2014
    Страна: Германия
    Жанр: драма, история
    Продолжительность: 02:02:53
    Озвучание: профессиональное многоголосое закадровое (FocusStudio)
    Cубтитры: русские, немецкие-Режиссер: Джулио Риччиарелли / Giulio Ricciarelli
    В ролях: Александр Фелинг, Андре Зиманский, Фредерике Бехт, Йоханнес Криш, Йохан фон Бюлов и другие-Описание: Фильм посвящен «Освенцимским процессам» — под таким названием в немецкую историю вошли суды над охранниками, надзирателями и прочим персоналом концлагеря Освенцим (Аушвиц), которые проходили во Франкфурте-на-Майне в 60-е годы. Молодой прокурор Йоханн Радманн обнаруживает сведения, изобличающие преступную деятельность бывшего персонала концлагеря.
    При поддержке генерального прокурора Фрица Бауэра (реальная фигура) он начинает расследование, в результате которого на скамье подсудимых оказалась целая «команда» лагерных палачей. Основная тема фильма — конфликт между теми, кто желает забыть прошлое во имя национального примирения в условиях «экономического чуда» и теми, кто стремится к установлению справедливости.-Релиз:
    Перевод: Елена Рыбакова- -Качество: BDRip 720p
    Формат: MKV
    Видео: 1280x544 (2.35:1), 23,976 fps, MPEG-4 AVC ~7472 kbps avg, 0.448 bit/pixel
    Аудио Rus: AC3, 6 ch, 48 kHz, 640 kbps
    Аудио Ger: AC3, 6 ch, 48 kHz, 640 kbps-

    Скриншоты

    [url=hhttp://i79.fastpic.ru/big/2016/0427/81/b2040b31d4bb621b14edf3cf3adfbb81.png][/url]

    MediaInfo

    Format : Matroska
    Format version : Version 4 / Version 2
    File size : 7.67 GiB
    Duration : 2h 2mn
    Overall bit rate : 8 930 Kbps
    Movie name : Im Labyrinth des Schweigens @ FocusStudio
    Encoded date : UTC 2016-04-27 12:04:41
    Writing application : mkvmerge v8.5.2 ('Crosses') 64bit
    Writing library : libebml v1.3.3 + libmatroska v1.4.4
    Video
    ID : 1
    Format : AVC
    Format/Info : Advanced Video Codec
    Format profile : High@L4.1
    Format settings, CABAC : Yes
    Format settings, ReFrames : 11 frames
    Codec ID : V_MPEG4/ISO/AVC
    Duration : 2h 2mn
    Bit rate : 7 472 Kbps
    Width : 1 280 pixels
    Height : 544 pixels
    Display aspect ratio : 2.35:1
    Frame rate mode : Variable
    Frame rate : 23.976 fps
    Color space : YUV
    Chroma subsampling : 4:2:0
    Bit depth : 8 bits
    Scan type : Progressive
    Bits/(Pixel*Frame) : 0.448
    Stream size : 6.41 GiB (84%)
    Writing library : x264 core 148 r2692+54 23ba871 t_mod_Custom [8-bit@all X86_64]
    Encoding settings : cabac=1 / ref=11 / deblock=1:-3:-3 / analyse=0x3:0x133 / me=umh / subme=11 / psy=1 / fade_compensate=0.00 / psy_rd=0.95:0.00 / mixed_ref=1 / me_range=48 / chroma_me=1 / trellis=2 / 8x8dct=1 / cqm=0 / deadzone=21,11 / fast_pskip=0 / chroma_qp_offset=-2 / threads=12 / lookahead_threads=3 / sliced_threads=0 / nr=0 / decimate=0 / interlaced=0 / bluray_compat=0 / constrained_intra=0 / fgo=0 / bframes=10 / b_pyramid=2 / b_adapt=2 / b_bias=0 / direct=3 / weightb=1 / open_gop=0 / weightp=2 / keyint=240 / keyint_min=24 / scenecut=40 / intra_refresh=0 / rc=crf / mbtree=0 / crf=15.0000 / qcomp=0.80 / qpmin=0:0:0 / qpmax=69:69:69 / qpstep=4 / ip_ratio=1.40 / pb_ratio=1.30 / aq=3:0.90 / aq-sensitivity=10.00 / aq-factor=1.00:1.00:1.00 / aq2=0 / aq3=0
    Language : German
    Default : Yes
    Forced : No
    Audio #1
    ID : 2
    Format : AC-3
    Format/Info : Audio Coding 3
    Mode extension : CM (complete main)
    Format settings, Endianness : Big
    Codec ID : A_AC3
    Duration : 2h 2mn
    Bit rate mode : Constant
    Bit rate : 640 Kbps
    Channel(s) : 6 channels
    Channel positions : Front: L C R, Side: L R, LFE
    Sampling rate : 48.0 KHz
    Bit depth : 16 bits
    Compression mode : Lossy
    Stream size : 563 MiB (7%)
    Language : German
    Default : No
    Forced : No
    Audio #2
    ID : 3
    Format : AC-3
    Format/Info : Audio Coding 3
    Mode extension : CM (complete main)
    Format settings, Endianness : Big
    Codec ID : A_AC3
    Duration : 2h 2mn
    Bit rate mode : Constant
    Bit rate : 640 Kbps
    Channel(s) : 6 channels
    Channel positions : Front: L C R, Side: L R, LFE
    Sampling rate : 48.0 KHz
    Bit depth : 16 bits
    Compression mode : Lossy
    Stream size : 563 MiB (7%)
    Title : MVO FocusStudio
    Language : Russian
    Default : Yes
    Forced : No
    Text #1
    ID : 4
    Format : UTF-8
    Codec ID : S_TEXT/UTF8
    Codec ID/Info : UTF-8 Plain Text
    Title : Full
    Language : Russian
    Default : No
    Forced : No
    Text #2
    ID : 5
    Format : UTF-8
    Codec ID : S_TEXT/UTF8
    Codec ID/Info : UTF-8 Plain Text
    Language : German
    Default : No
    Forced : No
    Menu
    00:00:00.000 : en:Chapter 1
    00:06:50.868 : en:Chapter 2
    00:14:05.427 : en:Chapter 3
    00:21:23.156 : en:Chapter 4
    00:28:33.837 : en:Chapter 5
    00:35:37.218 : en:Chapter 6
    00:42:47.064 : en:Chapter 7
    00:50:35.782 : en:Chapter 8
    00:58:43.436 : en:Chapter 9
    01:05:54.909 : en:Chapter 10
    01:12:25.424 : en:Chapter 11
    01:20:53.557 : en:Chapter 12
    01:29:12.513 : en:Chapter 13
    01:38:23.898 : en:Chapter 14
    01:46:23.752 : en:Chapter 15
    01:53:34.808 : en:Chapter 16
    Скачать .torrent

    Скачать торрент-файл бесплатно и на максимальной скорости!

    Как скачивать? · Что такое торрент? · Рейтинг и ограничения

    !ВНИМАНИЕ!
    Сайт не распространяет и не хранит электронные версии произведений, а занимается лишь лишь предоставлением доступа к создаваемому пользователями каталогу ссылок на торрент-файлы, которые содержат только списки хеш-сумм, убедительная просьба с жалобами обращаться напрямую к пользователю. Файлы для обмена на трекере предоставлены пользователями сайта, и администрация не несёт ответственности за их содержание. Просьба не заливать файлы, защищенные авторскими правами, а также файлы нелегального содержания!


    _________________
    [Профиль] [ЛС]
    Показать сообщения:    
    Ответить на тему

    Текущее время: Сегодня, в 08:58

    Часовой пояс: GMT + 2



    Вы не можете начинать темы
    Вы не можете отвечать на сообщения
    Вы не можете редактировать свои сообщения
    Вы не можете удалять свои сообщения
    Вы не можете голосовать в опросах
    Вы не можете прикреплять файлы к сообщениям
    Вы не можете скачивать файлы