BitTorrentTracker PerecTracker.org
BitTorrentTracker PerecTracker.org
    
Регистрация  ·  Вход
 
 · 
Забыли пароль?

  • В лабиринте молчания / Im Labyrinth des Schweigens (Джулио Риччиарелли / Giulio Ricciarelli) [2014, Германия, история, драма, BDRip 1080p] MVO (FocusStudio) + Original Ger + Sub Rus, Ger

    Ответить на тему
     
    Автор Сообщение

    Light

    Создавать темы 28-Апр-2016 13:03

           

    [Цитировать]

    -В лабиринте молчания / Im Labyrinth des Schweigens-Год выпуска: 2014
    Страна: Германия
    Жанр: драма, история
    Продолжительность: 02:02:53
    Озвучание: профессиональное многоголосое закадровое (FocusStudio)
    Cубтитры: русские, немецкие-Режиссер: Джулио Риччиарелли / Giulio Ricciarelli
    В ролях: Александр Фелинг, Андре Зиманский, Фредерике Бехт, Йоханнес Криш, Йохан фон Бюлов и другие-Описание: Фильм посвящен «Освенцимским процессам» — под таким названием в немецкую историю вошли суды над охранниками, надзирателями и прочим персоналом концлагеря Освенцим (Аушвиц), которые проходили во Франкфурте-на-Майне в 60-е годы. Молодой прокурор Йоханн Радманн обнаруживает сведения, изобличающие преступную деятельность бывшего персонала концлагеря.
    При поддержке генерального прокурора Фрица Бауэра (реальная фигура) он начинает расследование, в результате которого на скамье подсудимых оказалась целая «команда» лагерных палачей. Основная тема фильма — конфликт между теми, кто желает забыть прошлое во имя национального примирения в условиях «экономического чуда» и теми, кто стремится к установлению справедливости.-Релиз:
    Перевод: Елена Рыбакова- -Качество: BDRip 1080p
    Формат: MKV
    Видео: 1920x816 (2.35:1), 23,976 fps, MPEG-4 AVC ~10800 kbps avg, 0.28 bit/pixel
    Аудио Rus: DTS 5.1 / 48 kHz / 1509 kbps / 24-bit
    Аудио Ger: DTS 5.1 / 48 kHz / 1509 kbps / 24-bit-

    Скриншоты

    MediaInfo

    Format : Matroska
    Format version : Version 4 / Version 2
    File size : 11.9 GiB
    Duration : 2h 2mn
    Overall bit rate : 13.8 Mbps
    Movie name : Im Labyrinth des Schweigens @ FocusStudio
    Encoded date : UTC 2016-04-27 12:21:49
    Writing application : mkvmerge v8.1.0 ('Psychedelic Postcard') 64bit
    Writing library : libebml v1.3.1 + libmatroska v1.4.2
    Video
    ID : 1
    Format : AVC
    Format/Info : Advanced Video Codec
    Format profile : High@L4.1
    Format settings, CABAC : Yes
    Format settings, ReFrames : 5 frames
    Codec ID : V_MPEG4/ISO/AVC
    Duration : 2h 2mn
    Bit rate : 10.5 Mbps
    Width : 1 920 pixels
    Height : 816 pixels
    Display aspect ratio : 2.35:1
    Frame rate mode : Constant
    Frame rate : 23.976 (24000/1001) fps
    Color space : YUV
    Chroma subsampling : 4:2:0
    Bit depth : 8 bits
    Scan type : Progressive
    Bits/(Pixel*Frame) : 0.280
    Stream size : 9.04 GiB (76%)
    Writing library : x264 core 148 r2665 a01e339
    Encoding settings : cabac=1 / ref=5 / deblock=1:-3:-3 / analyse=0x3:0x133 / me=umh / subme=10 / psy=1 / psy_rd=1.00:0.00 / mixed_ref=1 / me_range=24 / chroma_me=1 / trellis=2 / 8x8dct=1 / cqm=0 / deadzone=21,11 / fast_pskip=1 / chroma_qp_offset=-2 / threads=6 / lookahead_threads=1 / sliced_threads=0 / nr=0 / decimate=1 / interlaced=0 / bluray_compat=0 / constrained_intra=0 / bframes=8 / b_pyramid=2 / b_adapt=2 / b_bias=0 / direct=3 / weightb=1 / open_gop=0 / weightp=2 / keyint=250 / keyint_min=25 / scenecut=40 / intra_refresh=0 / rc_lookahead=60 / rc=crf / mbtree=0 / crf=16.5 / qcomp=0.60 / qpmin=0 / qpmax=69 / qpstep=4 / vbv_maxrate=62500 / vbv_bufsize=78125 / crf_max=0.0 / nal_hrd=none / filler=0 / ip_ratio=1.40 / pb_ratio=1.30 / aq=1:0.80
    Default : Yes
    Forced : No
    Audio #1
    ID : 2
    Format : DTS
    Format/Info : Digital Theater Systems
    Mode : 16
    Format settings, Endianness : Big
    Codec ID : A_DTS
    Duration : 2h 2mn
    Bit rate mode : Constant
    Bit rate : 1 509 Kbps
    Channel(s) : 6 channels
    Channel positions : Front: L C R, Side: L R, LFE
    Sampling rate : 48.0 KHz
    Frame rate : 93.750 fps (512 spf)
    Bit depth : 24 bits
    Compression mode : Lossy
    Stream size : 1.30 GiB (11%)
    Title : MVO FocusStudio
    Language : Russian
    Default : Yes
    Forced : No
    Audio #2
    ID : 3
    Format : DTS
    Format/Info : Digital Theater Systems
    Mode : 16
    Format settings, Endianness : Big
    Codec ID : A_DTS
    Duration : 2h 2mn
    Bit rate mode : Constant
    Bit rate : 1 509 Kbps
    Channel(s) : 6 channels
    Channel positions : Front: L C R, Side: L R, LFE
    Sampling rate : 48.0 KHz
    Frame rate : 93.750 fps (512 spf)
    Bit depth : 24 bits
    Compression mode : Lossy
    Stream size : 1.30 GiB (11%)
    Language : German
    Default : No
    Forced : No
    Text #1
    ID : 4
    Format : UTF-8
    Codec ID : S_TEXT/UTF8
    Codec ID/Info : UTF-8 Plain Text
    Title : Full
    Language : Russian
    Default : No
    Forced : No
    Text #2
    ID : 5
    Format : UTF-8
    Codec ID : S_TEXT/UTF8
    Codec ID/Info : UTF-8 Plain Text
    Language : German
    Default : No
    Forced : No
    Menu
    00:00:00.000 : en:Chapter 01
    00:06:50.869 : en:Chapter 02
    00:14:05.428 : en:Chapter 03
    00:21:23.157 : en:Chapter 04
    00:28:33.837 : en:Chapter 05
    00:35:37.218 : en:Chapter 06
    00:42:47.064 : en:Chapter 07
    00:50:35.783 : en:Chapter 08
    00:58:43.437 : en:Chapter 09
    01:05:54.909 : en:Chapter 10
    01:12:25.424 : en:Chapter 11
    01:20:53.557 : en:Chapter 12
    01:29:12.514 : en:Chapter 13
    01:38:23.898 : en:Chapter 14
    01:46:23.752 : en:Chapter 15
    01:53:34.808 : en:Chapter 16
    Скачать .torrent

    Скачать торрент-файл бесплатно и на максимальной скорости!

    Как скачивать? · Что такое торрент? · Рейтинг и ограничения

    !ВНИМАНИЕ!
    Сайт не распространяет и не хранит электронные версии произведений, а занимается лишь лишь предоставлением доступа к создаваемому пользователями каталогу ссылок на торрент-файлы, которые содержат только списки хеш-сумм, убедительная просьба с жалобами обращаться напрямую к пользователю. Файлы для обмена на трекере предоставлены пользователями сайта, и администрация не несёт ответственности за их содержание. Просьба не заливать файлы, защищенные авторскими правами, а также файлы нелегального содержания!


    _________________
    [Профиль] [ЛС]
    Показать сообщения:    
    Ответить на тему

    Текущее время: Сегодня, в 11:32

    Часовой пояс: GMT + 2



    Вы не можете начинать темы
    Вы не можете отвечать на сообщения
    Вы не можете редактировать свои сообщения
    Вы не можете удалять свои сообщения
    Вы не можете голосовать в опросах
    Вы не можете прикреплять файлы к сообщениям
    Вы не можете скачивать файлы