BitTorrentTracker PerecTracker.org
BitTorrentTracker PerecTracker.org
    
Регистрация  ·  Вход
 
 · 
Забыли пароль?

  • Дикость 2 / Дикие штучки 2 / Wild Things 2 (Джек Перез / Jack Perez) [2004, США, триллер, драма, криминал, детектив, WEB-DL 720p] DVO (R5) + 2x MVO (Первый канал, Видеосервис) + Sub Rus, Eng + Original Eng

    Ответить на тему
     
    Автор Сообщение

    Light

    Создавать темы 28-Апр-2016 13:03

           

    [Цитировать]

    Дикость 2 / Дикие штучки 2 / Wild Things 2
    Страна: США
    Студия: Destination Films
    Жанр: триллер, драма, криминал, детектив
    Год выпуска: 2004
    Продолжительность: 01:34:49
    Перевод: Профессиональный (двухголосый закадровый) R5
    Перевод 2: Профессиональный (многоголосый закадровый) Первый канал
    Перевод 3: Профессиональный (многоголосый закадровый) Видеосервис
    Cубтитры: русские, английские
    Оригинальная аудиодорожка: английский
    Режиссер: Джек Перез / Jack Perez
    В ролях: Сьюзэн Уорд, Кэти Стюарт, Лейла Арчери, Дорит Вольф, Бретт Гилберт, Майкл Чиффо, Линден Эшби, Джо Майкл Бурк, Чад Гордон, Энтони Джон Дэнисон
    Описание: 17-летняя школьница Бритни готовится вступить в права наследства после смерти своего отчима, но в последний момент происходит непредвиденное: ее одноклассница Майя внезапно предоставляет неопровержимые доказательства того, что законной наследницей является она! А речь идет о миллионах долларов! Столь неправдоподобный поворот событий привлекает внимание страховой компании, и та присылает следователя разобраться в этом странном деле. И точно, вскоре перед героем начинают проступать контуры гениального преступного сговора хитрых девиц. Вот только, поддавшись сексуальным чарам порочных юных аферисток, детектив вступает в игру по их правилам, чем ставит на карту не только свою карьеру, но и саму жизнь...

    Sample
    Тип релиза: WEB-DL 720p
    Контейнер: MKV
    Видео: MPEG4 AVC Video, H264, 16:9, 1280x718, 23.976 fps, 3839 kbps
    Аудио: Russian (AC3, 6 ch, 448 kbps, 16 bits, 48.0 KHz) - R5
    Аудио 2: Russian (AC3, 2 ch, 192 kbps, 16 bits, 48.0 KHz) - Первый канал
    Аудио 3: Russian (AC3, 2 ch, 192 kbps, 16 bits, 48.0 KHz) - Видеосервис
    Аудио 4: English (AC3, 6 ch, 384 kbps, 16 bits, 48.0 KHz) - оригинал
    Формат субтитров: softsub (SRT)

    MediaInfo

    General
    Unique ID : 191394321343698146030501989722338745016 (0x8FFD34996DFB4054BE289F76CFDDDAB8)
    Complete name : E:\Wild Things 2 2004 WEB-DL 720p.mkv
    Format : Matroska
    Format version : Version 4 / Version 2
    File size : 3.42 GiB
    Duration : 1h 34mn
    Overall bit rate : 5 158 Kbps
    Encoded date : UTC 2016-04-27 16:33:21
    Writing application : mkvmerge v6.1.0 ('Old Devil') built on Mar 2 2013 14:32:37
    Writing library : libebml v1.3.0 + libmatroska v1.4.0
    Video
    ID : 1
    Format : AVC
    Format/Info : Advanced Video Codec
    Format profile : High@L3.1
    Format settings, CABAC : No
    Format settings, ReFrames : 2 frames
    Codec ID : V_MPEG4/ISO/AVC
    Duration : 1h 34mn
    Bit rate : 3 839 Kbps
    Width : 1 280 pixels
    Height : 718 pixels
    Display aspect ratio : 16:9
    Frame rate mode : Constant
    Frame rate : 23.976 fps
    Color space : YUV
    Chroma subsampling : 4:2:0
    Bit depth : 8 bits
    Scan type : Progressive
    Bits/(Pixel*Frame) : 0.174
    Stream size : 2.54 GiB (74%)
    Language : English
    Default : Yes
    Forced : No
    Color primaries : BT.709
    Transfer characteristics : BT.709
    Matrix coefficients : BT.709
    Audio #1
    ID : 2
    Format : AC-3
    Format/Info : Audio Coding 3
    Mode extension : CM (complete main)
    Format settings, Endianness : Big
    Codec ID : A_AC3
    Duration : 1h 34mn
    Bit rate mode : Constant
    Bit rate : 448 Kbps
    Channel count : 6 channels
    Channel positions : Front: L C R, Side: L R, LFE
    Sampling rate : 48.0 KHz
    Bit depth : 16 bits
    Compression mode : Lossy
    Stream size : 304 MiB (9%)
    Title : R5
    Language : Russian
    Default : Yes
    Forced : No
    Audio #2
    ID : 3
    Format : AC-3
    Format/Info : Audio Coding 3
    Mode extension : CM (complete main)
    Format settings, Endianness : Big
    Codec ID : A_AC3
    Duration : 1h 34mn
    Bit rate mode : Constant
    Bit rate : 192 Kbps
    Channel count : 2 channels
    Channel positions : Front: L R
    Sampling rate : 48.0 KHz
    Bit depth : 16 bits
    Compression mode : Lossy
    Stream size : 130 MiB (4%)
    Title : Первый канал
    Language : Russian
    Default : No
    Forced : No
    Audio #3
    ID : 4
    Format : AC-3
    Format/Info : Audio Coding 3
    Mode extension : CM (complete main)
    Format settings, Endianness : Big
    Codec ID : A_AC3
    Duration : 1h 34mn
    Bit rate mode : Constant
    Bit rate : 192 Kbps
    Channel count : 2 channels
    Channel positions : Front: L R
    Sampling rate : 48.0 KHz
    Bit depth : 16 bits
    Compression mode : Lossy
    Stream size : 130 MiB (4%)
    Title : Видеосервис
    Language : Russian
    Default : No
    Forced : No
    Audio #4
    ID : 5
    Format : AC-3
    Format/Info : Audio Coding 3
    Mode extension : CM (complete main)
    Format settings, Endianness : Big
    Codec ID : A_AC3
    Duration : 1h 34mn
    Bit rate mode : Constant
    Bit rate : 384 Kbps
    Channel count : 6 channels
    Channel positions : Front: L C R, Side: L R, LFE
    Sampling rate : 48.0 KHz
    Bit depth : 16 bits
    Compression mode : Lossy
    Stream size : 260 MiB (7%)
    Language : English
    Default : No
    Forced : No
    Text #1
    ID : 6
    Format : UTF-8
    Codec ID : S_TEXT/UTF8
    Codec ID/Info : UTF-8 Plain Text
    Language : Russian
    Default : No
    Forced : No
    Text #2
    ID : 7
    Format : UTF-8
    Codec ID : S_TEXT/UTF8
    Codec ID/Info : UTF-8 Plain Text
    Language : English
    Default : No
    Forced : No
    Menu
    00:00:00.000 : en:Wild Things 2
    00:03:34.000 : en:The Dangers Of Excess
    00:08:31.000 : en:Trouble In Paradise
    00:14:25.000 : en:"There's Been An Accident."
    00:18:12.000 : en:Terence Bridge, Investigator
    00:19:57.000 : en:The Security tape
    00:22:11.000 : en:Niles Dunlap's Will
    00:25:28.000 : en:Terence Smells A Rat
    00:26:34.000 : en:A Wrinkle In The Will
    00:27:50.000 : en:Niles Dunlap 101
    00:29:37.000 : en:Maya King Testifies
    00:34:22.000 : en:The Dna Test Results
    00:37:43.000 : en:Time To Celebrate
    00:42:21.000 : en:Rodent Problem
    00:45:58.000 : en:Niles' Medical Record
    00:48:40.000 : en:A Calming Influence
    00:49:43.000 : en:Neighborly Advice
    00:52:15.000 : en:Bobby Santiago, R.I.P.
    00:55:40.000 : en:The Hunting Party
    01:01:11.000 : en:Gator Alley Ain't Safe
    01:08:22.000 : en:Fired
    01:10:19.000 : en:Terence Gets Greedy
    01:16:57.000 : en:It's Not Your Money
    01:18:43.000 : en:Double Crossed
    01:22:24.000 : en:Fall Guy I
    01:25:11.000 : en:Fall Guy II
    01:27:18.000 : en:The Apple Doesn't Fall Far
    01:28:30.000 : en:Loose End Credits

    Скриншоты

    Скачать .torrent

    Скачать торрент-файл бесплатно и на максимальной скорости!

    Как скачивать? · Что такое торрент? · Рейтинг и ограничения

    !ВНИМАНИЕ!
    Сайт не распространяет и не хранит электронные версии произведений, а занимается лишь лишь предоставлением доступа к создаваемому пользователями каталогу ссылок на торрент-файлы, которые содержат только списки хеш-сумм, убедительная просьба с жалобами обращаться напрямую к пользователю. Файлы для обмена на трекере предоставлены пользователями сайта, и администрация не несёт ответственности за их содержание. Просьба не заливать файлы, защищенные авторскими правами, а также файлы нелегального содержания!


    _________________
    [Профиль] [ЛС]
    Показать сообщения:    
    Ответить на тему

    Текущее время: Сегодня, в 06:42

    Часовой пояс: GMT + 2



    Вы не можете начинать темы
    Вы не можете отвечать на сообщения
    Вы не можете редактировать свои сообщения
    Вы не можете удалять свои сообщения
    Вы не можете голосовать в опросах
    Вы не можете прикреплять файлы к сообщениям
    Вы не можете скачивать файлы