BitTorrentTracker PerecTracker.org
BitTorrentTracker PerecTracker.org
    
Регистрация  ·  Вход
 
 · 
Забыли пароль?

  • Таёжный роман (Александр Митта) (Режиссёрская версия) [2000, Криминальная драма, DVDRip-AVC] + Sub Rus

    Ответить на тему
     
    Автор Сообщение

    Flirldrerve

    Создавать темы 28-Апр-2016 08:58

           

    [Цитировать]

    Таёжный роман / Режиссёрская версия
    Жанр: Криминальная драма
    Год выпуска: 2000
    Продолжительность: 02:06:10
    Cубтитры: Русские
    Режиссёр: Александр Митта
    В ролях: Алексей Гуськов, Марат Башаров, Михаил Ефремов, Рената Литвинова, Ольга Будина, Елена Панова
    Описание: Дальний Восток. 70-ые годы. Маленький гарнизон на границе с Китаем. Здесь, как и всюду, живут мужчины и женщины. У каждого - своя история, своя судьба, своя любовь. Общее одно - все они попали сюда однажды по долгу службы и остались надолго. Марина Голощекина, - милая, добрая, правильная. Галя Жгут - умная, страстная, решительная. Альбина Ворон - экстравагантная, непредсказуемая, тонкая. Три подруги, три сестры в счастье и несчастье, офицерские жены. Они помогают друг другу устоять в этом совершено не женском мире, где у каждого мужчины есть пистолет ! А это значит, что любовь и опасность идут здесь рука об руку. Марина совершенно неожиданно встречает свою настоящую любовь молодого офицера Ивана Столбова. Об этой новой тайной любви узнают подруги. С одной стороны, за Марину можно порадоваться. Но как же ей радоваться самой, если позади пять лет брака с сильным, волевым и очень непредсказуемым Никитой Голощекиным.
    Доп. информация: Собственный рип.
    Сэмпл: https://yadi.sk/i/xxlvblDfrKVVm
    Качество видео: DVDRip-AVC
    Формат видео: MKV
    Видео: MPEG-4 AVC, 700x442@748x442, (1.692), 25 кадр/с, 2000 Кбит/с
    Аудио: Русский AC3, 48 kHz, 16 bits, 384 Кбит/с, 6 ch
    Формат субтитров: Softsub (SRT)
    Доп. информация о субтитрах: Отдельным файлом

    MediaInfo

    General
    Unique ID : 213502304412709464768415546636314181500 (0xA09F0C520333FFA680ADB74CC01D7F7C)
    Complete name : Tayozhnyy.roman.2000.DVDRip.x264.mkv
    Format : Matroska
    Format version : Version 4 / Version 2
    File size : 2.10 GiB
    Duration : 2h 6mn
    Overall bit rate : 2 386 Kbps
    Encoded date : UTC 2016-04-26 13:24:43
    Writing application : mkvmerge v6.7.0 ('Back to the Ground') 64bit built on Jan 9 2014 18:03:17
    Writing library : libebml v1.3.0 + libmatroska v1.4.1
    TITLE : ТАЕЖНЫЙ РОМАН
    ARTIST : Алексей Гуськов, Марат Башаров, Михаил Ефремов, Рената Литвинова, Ольга Будина
    DIRECTOR : Режиссёр: Александр Митта
    DATE_RELEASED : 2000
    SUMMARY : Рип lx1966
    GENRE : Драма
    DESCRIPTION : Россия, Школа-Студия Александра Митты, Ф.А.Ф. Интертейнмент, ОРТ
    SYNOPSIS : Дальний Восток. 70-ые годы. Маленький гарнизон на границе с Китаем. Здесь, как и всюду, живут мужчины и женщины. У каждого - своя история, своя судьба, своя любовь. Общее одно - все они попали сюда однажды по долгу службы и остались надолго. Марина Голощекина (Ольга Будина) - милая, добрая, правильная. Галя Жгут (Елена Панова) - умная, страстная, решительная. Альбина Ворон (Рената Литвинова) - экстравагантная, непредсказуемая, тонкая. / Три подруги, три сестры в счастье и несчастье, офицерские жены. Они помогают друг другу устоять в этом совершено не женском мире, где у каждого мужчины есть пистолет ! А это значит, что любовь и опасность идут здесь рука об руку. / Марина совершенно неожиданно встречает свою настоящую любовь молодого офицера Ивана Столбова (Марат Башаров). Об этой новой тайной любви узнают подруги. С одной стороны, за Марину можно порадоваться. Но как же ей радоваться самой, если позади пять лет брака с сильным, волевым и очень непредсказуемым Никитой Голощекиным (Алексей Гуськов).
    Video
    ID : 1
    Format : AVC
    Format/Info : Advanced Video Codec
    Format profile : High@L4.0
    Format settings, CABAC : Yes
    Format settings, ReFrames : 8 frames
    Codec ID : V_MPEG4/ISO/AVC
    Duration : 2h 6mn
    Bit rate : 2 000 Kbps
    Width : 700 pixels
    Height : 442 pixels
    Display aspect ratio : 1.692
    Frame rate mode : Constant
    Frame rate : 25.000 fps
    Color space : YUV
    Chroma subsampling : 4:2:0
    Bit depth : 8 bits
    Scan type : Progressive
    Bits/(Pixel*Frame) : 0.259
    Stream size : 1.72 GiB (82%)
    Title : Режиссёр: Александр Митта
    Writing library : x264 core 142 r2389 956c8d8
    Encoding settings : cabac=1 / ref=8 / deblock=1:0:0 / analyse=0x3:0x133 / me=umh / subme=10 / psy=1 / psy_rd=1,10:0,20 / mixed_ref=1 / me_range=24 / chroma_me=1 / trellis=2 / 8x8dct=1 / cqm=0 / deadzone=21,11 / fast_pskip=0 / chroma_qp_offset=-3 / threads=6 / lookahead_threads=1 / sliced_threads=0 / nr=0 / decimate=0 / interlaced=0 / bluray_compat=0 / constrained_intra=0 / bframes=10 / b_pyramid=2 / b_adapt=2 / b_bias=0 / direct=3 / weightb=1 / open_gop=0 / weightp=2 / keyint=250 / keyint_min=25 / scenecut=40 / intra_refresh=0 / rc_lookahead=60 / rc=2pass / mbtree=0 / bitrate=2000 / ratetol=1,0 / qcomp=0,60 / qpmin=0 / qpmax=69 / qpstep=4 / cplxblur=20,0 / qblur=0,5 / vbv_maxrate=20000 / vbv_bufsize=25000 / nal_hrd=none / filler=0 / ip_ratio=1,40 / pb_ratio=1,30 / aq=1:1,00
    Language : Russian
    Default : Yes
    Forced : No
    Color primaries : BT.601 PAL
    Transfer characteristics : BT.709
    Matrix coefficients : BT.601
    Audio
    ID : 2
    Format : AC-3
    Format/Info : Audio Coding 3
    Mode extension : CM (complete main)
    Format settings, Endianness : Big
    Codec ID : A_AC3
    Duration : 2h 6mn
    Bit rate mode : Constant
    Bit rate : 384 Kbps
    Channel(s) : 6 channels
    Channel positions : Front: L C R, Side: L R, LFE
    Sampling rate : 48.0 KHz
    Bit depth : 16 bits
    Compression mode : Lossy
    Stream size : 347 MiB (16%)
    Title : AC3, 48 kHz, 16 bits, 384 Кбит/с, 6 ch
    Language : Russian
    Default : Yes
    Forced : No
    General
    Complete name : /home/lx1966/Торрент/Tayozhnyy.roman.2000/Tayozhnyy.roman.2000.DVDRip.x264.srt
    File size : 121 KiB

    Лог

    x264 [info]: frame I:1267 Avg QP:20,09 size: 48541 PSNR Mean Y:43,69 U:48,11 V:48,90 Avg:44,77 Global:44,30
    x264 [info]: frame P:37975 Avg QP:22,62 size: 19342 PSNR Mean Y:41,57 U:47,08 V:47,89 Avg:42,80 Global:42,25
    x264 [info]: frame B:150013 Avg QP:24,38 size: 7310 PSNR Mean Y:40,40 U:46,73 V:47,60 Avg:41,72 Global:41,22
    x264 [info]: consecutive B-frames: 1,2% 1,5% 5,2% 19,6% 16,6% 42,1% 8,2% 3,2% 1,0% 1,0% 0,3%
    x264 [info]: mb I I16..4: 6,3% 68,0% 25,7%
    x264 [info]: mb P I16..4: 1,0% 16,9% 2,7% P16..4: 39,6% 23,9% 14,6% 0,6% 0,1% skip: 0,6%
    x264 [info]: mb B I16..4: 0,1% 1,6% 0,2% B16..8: 41,0% 12,4% 3,3% direct:14,0% skip:27,4% L0:37,9% L1:39,7% BI:22,4%
    x264 [info]: 8x8 transform intra:80,9% inter:59,8%
    x264 [info]: direct mvs spatial:99,6% temporal:0,4%
    x264 [info]: coded y,uvDC,uvAC intra: 94,2% 82,1% 46,2% inter: 45,7% 26,4% 4,8%
    x264 [info]: i16 v,h,dc,p: 34% 17% 24% 25%
    x264 [info]: i8 v,h,dc,ddl,ddr,vr,hd,vl,hu: 10% 9% 7% 9% 13% 13% 12% 12% 14%
    x264 [info]: i4 v,h,dc,ddl,ddr,vr,hd,vl,hu: 12% 8% 4% 9% 14% 15% 13% 12% 13%
    x264 [info]: i8c dc,h,v,p: 35% 24% 22% 19%
    x264 [info]: Weighted P-Frames: Y:28,1% UV:9,3%
    x264 [info]: ref P L0: 46,6% 11,9% 16,9% 8,3% 5,9% 4,4% 3,4% 2,0% 0,6% 0,0%
    x264 [info]: ref B L0: 78,1% 12,0% 4,7% 2,4% 1,6% 0,8% 0,4%
    x264 [info]: ref B L1: 95,1% 4,9%
    x264 [info]: SSIM Mean Y:0,9712107 (15,408db)
    x264 [info]: PSNR Mean Y:40,660 U:46,813 V:47,663 Avg:41,953 Global:41,424 kb/s:2000,11

    Скриншот c названием фильма

    Скриншоты



    Скачать .torrent

    Скачать торрент-файл бесплатно и на максимальной скорости!

    Как скачивать? · Что такое торрент? · Рейтинг и ограничения

    !ВНИМАНИЕ!
    Сайт не распространяет и не хранит электронные версии произведений, а занимается лишь лишь предоставлением доступа к создаваемому пользователями каталогу ссылок на торрент-файлы, которые содержат только списки хеш-сумм, убедительная просьба с жалобами обращаться напрямую к пользователю. Файлы для обмена на трекере предоставлены пользователями сайта, и администрация не несёт ответственности за их содержание. Просьба не заливать файлы, защищенные авторскими правами, а также файлы нелегального содержания!


    _________________
    [Профиль] [ЛС]
    Показать сообщения:    
    Ответить на тему

    Текущее время: Сегодня, в 20:38

    Часовой пояс: GMT + 2



    Вы не можете начинать темы
    Вы не можете отвечать на сообщения
    Вы не можете редактировать свои сообщения
    Вы не можете удалять свои сообщения
    Вы не можете голосовать в опросах
    Вы не можете прикреплять файлы к сообщениям
    Вы не можете скачивать файлы