Register  ·  Log in
Forgot password?

  • Кукла / The Boy (Уильям Брент Белл / William Brent Bell) [2016, США, Китай, Канада, ужасы, триллер, HDRip] Dub

    Reply to topic
    Author Message


    Post 28-Apr-2016 09:58



    The Boy
    «Каждый ребенок должен быть любим»
    -Страна: США, Китай, Канада
    Жанр: Ужасы, триллер
    Год выпуска: 2016
    Продолжительность: 01:37:20-Перевод: Профессиональный (дублированный)
    Cубтитры: нет-Режиссер: Уильям Брент Белл / William Brent Bell-В ролях: Лорен Кохэн, Руперт Эванс, Джеймс Расселл, Джим Нортон (I), Диана Хардкэсл, Бен Робсон, Джетт Клине, Стефани Николь Лемелин-Описание: Благополучная английская семья нанимает для своего сына американскую няню. Приехав на новое место работы, няня обнаруживает, что ее подопечный — вовсе не настоящий мальчик, а кукла в человеческий рост, с которой обращаются, как с живым человеком. Но тревожные события, происходящие после того, как няня нарушает установленные строгие правила, заставляют её поверить в то, что кукла действительно может быть живой…- -Тип релиза: HDRip [BDRip 1080p]
    Контейнер: AVI
    Видео: AVC 688x288 (2.40:1) 23.976fps 926kbps 0.195 Bits/(Pixel*Frame)
    Аудио: MP3 48kHz 2ch 128 Kbps Dub Rus-


    Complete name               : D:\Фильмы\Kukla 2016 HDRip.avi
    Format                      : AVI
    Format/Info                 : Audio Video Interleave
    File size                   : 744 MiB
    Duration                    : 1h 37mn
    Overall bit rate            : 1 063 Kbps
    Writing application         : VirtualDubMod | || (build 2550/release)
    Writing library             : VirtualDubMod build 2550/release
    ID                          : 0
    Format                      : MPEG-4 Visual
    Format profile              : Advanced Simple@L5
    Format settings, BVOP       : 1
    Format settings, QPel       : No
    Format settings, GMC        : No warppoints
    Format settings, Matrix     : Custom
    Codec ID                    : XVID
    Codec ID/Hint               : XviD
    Duration                    : 1h 37mn
    Bit rate                    : 926 Kbps
    Width                       : 688 pixels
    Height                      : 288 pixels
    Display aspect ratio        : 2.40:1
    Frame rate                  : 23.976 (23976/1000) fps
    Color space                 : YUV
    Chroma subsampling          : 4:2:0
    Bit depth                   : 8 bits
    Scan type                   : Progressive
    Compression mode            : Lossy
    Bits/(Pixel*Frame)          : 0.195
    Stream size                 : 648 MiB (87%)
    Writing library             : XviD 73
    ID                          : 1
    Format                      : MPEG Audio
    Format version              : Version 1
    Format profile              : Layer 3
    Codec ID                    : 55
    Codec ID/Hint               : MP3
    Duration                    : 1h 37mn
    Bit rate mode               : Constant
    Bit rate                    : 128 Kbps
    Channel(s)                  : 2 channels
    Sampling rate               : 48.0 KHz
    Compression mode            : Lossy
    Stream size                 : 89.5 MiB (12%)
    Alignment                   : Aligned on interleaves
    Interleave, duration        : 42 ms (1.00 video frame)
    Interleave, preload duratio : 504 ms
    Writing library             : LAME3.99r
    Encoding settings           : -m s -V 4 -q 2 -lowpass 17 -b 128


    Скриншот с названием фильма


    Download .torrent

    Download free and at maximum speed!

    How to Download? · What is a torrent? · Ratings and Limitations

    The site does not extend and does not store electronic(digital) versions of products, and only gives access to a reference catalogue created by users on torrent-files which contain only lists of the hash-sums, the earnest entreaty, with complaints(abuse) to access directly to the user. Files for an exchange on tracker are given by users of a site, and the administration does not bear the responsibility for their maintenance. The request to not fill in the files protected by copyrights, and also files of the illegal maintenance!

    [Profile] [PM]
    Display posts from previous:    
    Reply to topic

    The time now is: Today 23:53

    All times are GMT + 3 Hours

    You cannot post new topics in this forum
    You cannot reply to topics in this forum
    You cannot edit your posts in this forum
    You cannot delete your posts in this forum
    You cannot vote in polls in this forum
    You cannot attach files in this forum
    You cannot download files in this forum