BitTorrentTracker PerecTracker.org
BitTorrentTracker PerecTracker.org
    
Регистрация  ·  Вход
 
 · 
Забыли пароль?

  • Унижение / The Humbling (Барри Левинсон / Barry Levinson) [2014, США, драма, HDRip] MVO

    Ответить на тему
     
    Автор Сообщение

    Light

    Создавать темы 28-Апр-2016 08:58

           

    [Цитировать]

    Унижение / The Humbling--Страна: США
    Жанр: Драма
    Продолжительность: 01:46:56
    Год выпуска: 2014
    -Перевод: Профессиональный (многоголосый, закадровый) | R5
    Субтитры: нет
    Режиссёр: Барри Левинсон / Barry Levinson
    -В ролях:
    Аль Пачино, Грета Гервиг, Дайэнн Уист, Кира Седжвик, Нина Арианда, Билли Портер, Чарльз Гродин, Дилан Бейкер, Дэн Хедайя, Мэри Луиза Уилсон, Лэнс Робертс, Ли Цзюнь Ли
    -Описание:
    Успешный и знаменитый, одарённый, но уже «навсегда уставший» и утративший вдохновение актер в предвкушении финала карьеры пытается покончить с собой. Любовь и отношения с девушкой значительно моложе его, кардинально меняют вектор сведения счетов.
    -Релиз групп All Films и RG Torrents.ru-Сэмпл: https://www.sendspace.com/file/kgsjej-Качество: HDRip - Исходник BDRip 1080p (Кинозал)
    Формат: AVI
    Видео: 688x288 (2.39:1), 23.976 fps, XviD build 73 ~834 kbps avg, 0.17 bit/pixel
    Аудио: 48 kHz, MPEG Layer 3, 2 ch, ~128.00 kbps avg
    -

    Отчёт MediaInfo

    General
    Complete name : C:\Users\Максим\Desktop\The.Humbling.2014.HDRip.745.polkera.avi
    Format : AVI
    Format/Info : Audio Video Interleave
    File size : 743 MiB
    Duration : 1h 46mn
    Overall bit rate : 972 Kbps
    Writing application : VirtualDubMod 1.5.10.3 | www.virtualdub-fr.org || (build 2550/release)
    Writing library : VirtualDubMod build 2550/release
    Video
    Format : MPEG-4 Visual
    Format profile : Streaming Video@L1
    Format settings, BVOP : Yes
    Format settings, QPel : No
    Format settings, GMC : No warppoints
    Format settings, Matrix : Custom
    Codec ID : XVID
    Codec ID/Hint : XviD
    Duration : 1h 46mn
    Bit rate : 835 Kbps
    Width : 688 pixels
    Height : 288 pixels
    Display aspect ratio : 2.35
    Frame rate : 23.976 fps
    Resolution : 24 bits
    Colorimetry : 4:2:0
    Scan type : Progressive
    Bits/(Pixel*Frame) : 0.176
    Stream size : 638 MiB (86%)
    Writing library : XviD 73
    Audio
    Format : MPEG Audio
    Format version : Version 1
    Format profile : Layer 3
    Codec ID : 55
    Codec ID/Hint : MP3
    Duration : 1h 46mn
    Bit rate mode : Constant
    Bit rate : 128 Kbps
    Channel(s) : 2 channels
    Sampling rate : 48.0 KHz
    Resolution : 16 bits
    Stream size : 97.9 MiB (13%)
    Alignment : Aligned on interleaves
    Interleave, duration : 42 ms (1.00 video frame)

    -

    Скриншоты

    -
    |
    Скачать .torrent

    Скачать торрент-файл бесплатно и на максимальной скорости!

    Как скачивать? · Что такое торрент? · Рейтинг и ограничения

    !ВНИМАНИЕ!
    Сайт не распространяет и не хранит электронные версии произведений, а занимается лишь лишь предоставлением доступа к создаваемому пользователями каталогу ссылок на торрент-файлы, которые содержат только списки хеш-сумм, убедительная просьба с жалобами обращаться напрямую к пользователю. Файлы для обмена на трекере предоставлены пользователями сайта, и администрация не несёт ответственности за их содержание. Просьба не заливать файлы, защищенные авторскими правами, а также файлы нелегального содержания!


    _________________
    [Профиль] [ЛС]
    Показать сообщения:    
    Ответить на тему

    Текущее время: Сегодня, в 10:09

    Часовой пояс: GMT + 2



    Вы не можете начинать темы
    Вы не можете отвечать на сообщения
    Вы не можете редактировать свои сообщения
    Вы не можете удалять свои сообщения
    Вы не можете голосовать в опросах
    Вы не можете прикреплять файлы к сообщениям
    Вы не можете скачивать файлы