BitTorrentTracker PerecTracker.org
BitTorrentTracker PerecTracker.org
    
Регистрация  ·  Вход
 
 · 
Забыли пароль?

  • Однажды в Одессе / Серии: 1-8 из 8 (Андрей Бурлака, Ольга Бережная) [2016, Комедия, WEBRip]

    Ответить на тему
     
    Автор Сообщение

    rechyn

    Создавать темы 28-Апр-2016 07:01

           

    [Цитировать]

    Однажды в Одессе
    Год выпуска: 2016
    Производство: студии «Квартал-95» и «Драйв Продакшн»
    Жанр: Комедия
    Продолжительность: 00:25:00
    Субтитры: Нет
    Режиссёр: Андрей Бурлака, Ольга Бережная
    В ролях: Сергей Середа, Александр Станкевич, Григорий Гущин и Левон Назинян
    Описание: Это история о четверке друзей - Грише, Косте, Леве и Шуре - одесситов до мозга костей, живущих в одной коммунальной квартире. Но в квартет закадычных друзей внезапно вмешивается очаровательная девушка Юля, которая приехала из другого города поступать в университет. Юля вносит диссонанс в спокойную жизнь героев сериала, и конечно, ни один из ребят не остается равнодушным к новой замечательной соседке.
    Однажды в Одессе: Країни У стало больше
    Представительница прекрасного пола вносит диссонанс в спокойную жизнь героев сериала, и конечно, ни один из ребят не остается равнодушным к новой замечательной соседке.
    Главные роли в серале выполнили известные одесские КВНщики Сергей Середа, Александр Станкевич, Григорий Гущин и Левон Назинян. Актеры, как и их герои, - настоящие одесситы, поэтому принимали непосредственное участие в написании сценария.
    Зрителей ждет небольшой сюрприз – нова героиня. Ее роль выполнила певица MamaRika, ранее известная как Эрика.
    Однажды в Одессе – это комедийный сериал от студии Квартал 95 и Драйв Продакшн по заказу телеканала ТЕТ. Сериал является одним из скетчей известного скетчкома Країна У, который оказался настолько удачным, что стал основой для отдельного сериала. Это история о четверке друзей – Грише, Косте, Леве и Шуре – одесситов в десятом поколении, живущих в одной коммунальной квартире. Но в квартет закадычных друзей внезапно вмешивается очаровательная девушка Юля, которая приехала из другого города поступать в университет.-Доп. информация: Реклама отсутствует!-Все раздачи сериала:
    Сэмпл:
    Качество: WEBRip
    Формат: AVI
    Видео кодек: XviD
    Аудио кодек: MP3
    Видео: 720x400, 25 fps, XviD, ~1800 kbps, 0.229 bit/pixel
    Аудио: 44.1 kHz, MPEG Layer 3, 2 ch, 192 kbps

    MI

    Общее
    Полное имя : I:\001\Однажды в Одессе (2016) WEB-DLRip\Однажды в Одессе.(05.seriya).2016.XviD.WEB-DLRip.by.simka.avi
    Формат : AVI
    Формат/Информация : Audio Video Interleave
    Размер файла : 350 Мбайт
    Продолжительность : 25 м.
    Общий поток : 1950 Кбит/сек
    Программа кодирования : VirtualDubMod 1.5.10.3 | www.virtualdub-fr.org || (build 2550/release)
    Библиотека кодирования : VirtualDubMod build 2550/release
    Видео
    Идентификатор : 0
    Формат : MPEG-4 Visual
    Профиль формата : Advanced Simple@L5
    Параметр BVOP формата : 1
    Параметр QPel формата : Нет
    Параметр GMC формата : Без точки перехода
    Параметр матрицы формата : Default (MPEG)
    Идентификатор кодека : XVID
    Идентификатор кодека/Подсказка : XviD
    Продолжительность : 25 м.
    Битрейт : 1749 Кбит/сек
    Ширина : 720 пикселей
    Высота : 400 пикселей
    Соотношение сторон : 16:9
    Частота кадров : 25,000 кадров/сек
    Цветовое пространство : YUV
    Субдискретизация насыщенности : 4:2:0
    Битовая глубина : 8 бит
    Тип развёртки : Прогрессивная
    Метод сжатия : С потерями
    Бит/(Пиксели*Кадры) : 0.243
    Размер потока : 314 Мбайт (90%)
    Библиотека кодирования : XviD 1.2.1 (UTC 2008-12-04)
    Аудио
    Идентификатор : 1
    Формат : MPEG Audio
    Версия формата : Version 1
    Профиль формата : Layer 3
    Режим : Joint stereo
    Расширение режима : MS Stereo
    Идентификатор кодека : 55
    Идентификатор кодека/Подсказка : MP3
    Продолжительность : 25 м.
    Вид битрейта : Постоянный
    Битрейт : 192 Кбит/сек
    Каналы : 2 канала
    Частота : 44,1 КГц
    Метод сжатия : С потерями
    Размер потока : 34,5 Мбайт (10%)
    Выравнивание : Разделение по промежуткам
    Продолжительность промежутка : 40 мс. (1,00 видеокадр)
    Время предзагрузки промежутка : 500 мс.
    Библиотека кодирования : LAME3.99r
    Настройки программы : -m j -V 4 -q 2 -lowpass 18.6 -b 192

    Скриншоты

    Скачать .torrent

    Скачать торрент-файл бесплатно и на максимальной скорости!

    Как скачивать? · Что такое торрент? · Рейтинг и ограничения

    !ВНИМАНИЕ!
    Сайт не распространяет и не хранит электронные версии произведений, а занимается лишь лишь предоставлением доступа к создаваемому пользователями каталогу ссылок на торрент-файлы, которые содержат только списки хеш-сумм, убедительная просьба с жалобами обращаться напрямую к пользователю. Файлы для обмена на трекере предоставлены пользователями сайта, и администрация не несёт ответственности за их содержание. Просьба не заливать файлы, защищенные авторскими правами, а также файлы нелегального содержания!


    _________________
    [Профиль] [ЛС]
    Показать сообщения:    
    Ответить на тему

    Текущее время: Сегодня, в 18:30

    Часовой пояс: GMT + 2



    Вы не можете начинать темы
    Вы не можете отвечать на сообщения
    Вы не можете редактировать свои сообщения
    Вы не можете удалять свои сообщения
    Вы не можете голосовать в опросах
    Вы не можете прикреплять файлы к сообщениям
    Вы не можете скачивать файлы