BitTorrentTracker PerecTracker.org
BitTorrentTracker PerecTracker.org
    
Регистрация  ·  Вход
 
 · 
Забыли пароль?

  • Норм и Несокрушимые / Norm of the North (Тревор Уолл / Trevor Wall) [2016, Индия, США, мультфильм, комедия, приключения, семейный, BDRip-AVC] DUB (iTunes) + Original (Eng) + Sub (eng)

    Ответить на тему
     
    Автор Сообщение

    Flirldrerve

    Создавать темы 28-Апр-2016 00:40

           

    [Цитировать]

    Норм и Несокрушимые
    Norm of the North
    «Главный мультфильм весенних каникул»
    -Год выпуска: 2016
    Страна: Индия, США | Assemblage Entertainment, Lionsgate, Splash Entertainment
    Жанр: мультфильм, комедия, приключения, семейный
    Продолжительность: 01:30:31
    Перевод: Профессиональный (Дублированный) - iTunes
    русские субтитры: нет-Режиссёр: Тревор Уолл : Trevor Wall-Роли озвучивали: Роб Шнайдер, Хэзер Грэм, Кен Жонг, Билл Найи, Колм Мини, Лоретта Дивайн, Майкл МакЭлхаттон, Майя Кэй, Габриэль Иглесиас, Салом Дженс
    Роли дублировали: Антон Комолов, Ольга Шелест, Алина Кукушкина, Сергей Чихачев, Николай Дроздов-ОписаниеВстречайте! Норм и Несокрушимые — добродушный белый медведь и шустрые лемминги. Их миссия — спасти родную Арктику от коварной корпорации. Могущественный босс Мистер Грин задумал построить здесь, среди чистых льдов, город богачей, и пушистый отряд должен дать противнику бой на его территории.
    Норм и Несокрушимые отправляются прямо в каменные джунгли мегаполиса. Их обаяние, отвага, шутки и танцы — особенно зажигательный «Арктик Шейк» — растопят сердца горожан, но для победы мало просто стать звёздами. Впереди — настоящие испытания и вихрь приключений.
    - релиз: -Качество: BDRip-AVC BDRemux 1080 -Azureus-
    Формат: MKV
    Видео кодек: AVC
    Аудио кодек: AC3
    Видео: AVC 3171 Kbps 1136 x 614 (1.850) 23.976 fps
    Аудио #1: [RUS] 48 kHz, AC3 Dolby Digital, 3/2 (L,C,R,l,r) + LFE ch, ~384 kbps iTunes
    Аудио #2: [ENG] AC-3 448 Kbps 6 channels, 48.0 KHz
    субтитры: английские
    навигация по главам: 11 глав (не именные)

    Скриншоты




    MediaInfo | Log

    Log

    x264 [info]: frame I:1212 Avg QP:14.19 size: 97941
    x264 [info]: frame P:35519 Avg QP:16.36 size: 30833
    x264 [info]: frame B:93493 Avg QP:19.27 size: 10619
    x264 [info]: consecutive B-frames: 5.4% 5.4% 17.4% 26.3% 13.0% 27.4% 1.9% 0.6% 0.5% 0.3% 0.3% 0.3% 0.1% 0.3% 0.8%
    x264 [info]: mb I I16..4: 7.7% 65.6% 26.7%
    x264 [info]: mb P I16..4: 1.6% 17.4% 3.5% P16..4: 22.0% 22.3% 9.0% 1.9% 0.3% skip:22.1%
    x264 [info]: mb B I16..4: 0.3% 3.0% 0.4% B16..8: 24.1% 15.6% 3.0% direct: 4.1% skip:49.5% L0:40.4% L1:43.7% BI:15.9%
    x264 [info]: 8x8 transform intra:77.1% inter:59.8%
    x264 [info]: direct mvs spatial:99.9% temporal:0.1%
    x264 [info]: coded y,uvDC,uvAC intra: 83.6% 80.4% 60.3% inter: 18.5% 15.4% 4.5%
    x264 [info]: i16 v,h,dc,p: 19% 24% 4% 53%
    x264 [info]: i8 v,h,dc,ddl,ddr,vr,hd,vl,hu: 10% 12% 8% 9% 11% 11% 13% 11% 15%
    x264 [info]: i4 v,h,dc,ddl,ddr,vr,hd,vl,hu: 15% 15% 7% 7% 13% 11% 12% 8% 11%
    x264 [info]: i8c dc,h,v,p: 31% 34% 18% 17%
    x264 [info]: Weighted P-Frames: Y:3.7% UV:2.6%
    x264 [info]: ref P L0: 56.4% 10.3% 13.7% 5.5% 3.8% 2.8% 2.3% 1.5% 1.2% 1.2% 1.2% 0.1% 0.0%
    x264 [info]: ref B L0: 80.8% 8.3% 3.9% 2.3% 1.4% 1.1% 1.0% 0.7% 0.4% 0.2%
    x264 [info]: ref B L1: 95.9% 4.1%
    x264 [info]: kb/s:3250.17
    x264 [total]: encoded 130224 frames, 7.69 fps, 3250.17 kb/s, duration 4:42:14.64
    Format : Matroska
    Format version : Version 4 / Version 2
    File size : 2.58 GiB
    Duration : 1h 30mn
    Overall bit rate : 4 084 Kbps
    Encoded date : UTC 2016-04-27 17:08:56
    Writing application : mkvmerge v6.7.0 ('Back to the Ground') 32bit built on Jan 8 2014 15:03:17
    Writing library : libebml v1.3.0 + libmatroska v1.4.1
    Video
    ID : 1
    Format : AVC
    Format/Info : Advanced Video Codec
    Format profile : High@L4.1
    Format settings, CABAC : Yes
    Format settings, ReFrames : 11 frames
    Codec ID : V_MPEG4/ISO/AVC
    Duration : 1h 30mn
    Bit rate : 3 171 Kbps
    Width : 1 136 pixels
    Height : 614 pixels
    Display aspect ratio : 1.85:1
    Frame rate mode : Constant
    Frame rate : 23.976 (24000/1001) fps
    Color space : YUV
    Chroma subsampling : 4:2:0
    Bit depth : 8 bits
    Scan type : Progressive
    Bits/(Pixel*Frame) : 0.190
    Stream size : 2.01 GiB (78%)
    Title : Norm of the North (2016) [perectracker.org]
    Writing library : x264 core 148 r2692kMod 64f4e24
    Encoding settings : cabac=1 / ref=11 / deblock=1:-2:-2 / analyse=0x3:0x133 / me=umh / subme=11 / psy=1 / fade_compensate=0.00 / psy_rd=1.00:0.05 / mixed_ref=1 / me_range=48 / chroma_me=1 / trellis=2 / 8x8dct=1 / cqm=0 / deadzone=21,11 / fast_pskip=0 / chroma_qp_offset=-3 / threads=12 / lookahead_threads=3 / sliced_threads=0 / nr=0 / decimate=1 / interlaced=0 / bluray_compat=0 / constrained_intra=0 / fgo=0 / bframes=14 / b_pyramid=2 / b_adapt=2 / b_bias=0 / direct=3 / weightb=1 / open_gop=0 / weightp=2 / keyint=250 / keyint_min=23 / scenecut=40 / intra_refresh=0 / rc_lookahead=60 / rc=crf / mbtree=0 / crf=17.4000 / qcomp=0.60 / qpmin=0 / qpmax=69 / qpstep=4 / vbv_maxrate=50000 / vbv_bufsize=62500 / crf_max=0.0 / nal_hrd=none / filler=0 / ip_ratio=1.40 / pb_ratio=1.30 / aq=3:0.90
    Language : English
    Default : Yes
    Forced : No
    Audio #1
    ID : 2
    Format : AC-3
    Format/Info : Audio Coding 3
    Mode extension : CM (complete main)
    Format settings, Endianness : Big
    Codec ID : A_AC3
    Duration : 1h 30mn
    Bit rate mode : Constant
    Bit rate : 384 Kbps
    Channel(s) : 6 channels
    Channel positions : Front: L C R, Side: L R, LFE
    Sampling rate : 48.0 KHz
    Frame rate : 31.250 fps (1536 spf)
    Compression mode : Lossy
    Stream size : 249 MiB (9%)
    Title : DUB [iTunes)
    Language : Russian
    Default : Yes
    Forced : No
    Audio #2
    ID : 3
    Format : AC-3
    Format/Info : Audio Coding 3
    Mode extension : CM (complete main)
    Format settings, Endianness : Big
    Codec ID : A_AC3
    Duration : 1h 30mn
    Bit rate mode : Constant
    Bit rate : 448 Kbps
    Channel(s) : 6 channels
    Channel positions : Front: L C R, Side: L R, LFE
    Sampling rate : 48.0 KHz
    Frame rate : 31.250 fps (1536 spf)
    Compression mode : Lossy
    Stream size : 290 MiB (11%)
    Title : Original
    Language : English
    Default : No
    Forced : No
    Text #1
    ID : 4
    Format : UTF-8
    Codec ID : S_TEXT/UTF8
    Codec ID/Info : UTF-8 Plain Text
    Title : Full
    Language : English
    Default : No
    Forced : No
    Text #2
    ID : 5
    Format : UTF-8
    Codec ID : S_TEXT/UTF8
    Codec ID/Info : UTF-8 Plain Text
    Title : SDH
    Language : English
    Default : No
    Forced : No
    Menu
    00:00:00.000 : en:00:00:00.000
    00:06:52.162 : en:00:06:52.162
    00:14:10.475 : en:00:14:10.475
    00:21:09.894 : en:00:21:09.894
    00:27:25.978 : en:00:27:25.978
    00:35:50.690 : en:00:35:50.690
    00:43:51.254 : en:00:43:51.254
    00:52:15.883 : en:00:52:15.883
    00:57:42.751 : en:00:57:42.751
    01:04:43.296 : en:01:04:43.296
    01:14:42.520 : en:01:14:42.520
    01:25:29.040 : en:01:25:29.040
    Скачать .torrent

    Скачать торрент-файл бесплатно и на максимальной скорости!

    Как скачивать? · Что такое торрент? · Рейтинг и ограничения

    !ВНИМАНИЕ!
    Сайт не распространяет и не хранит электронные версии произведений, а занимается лишь лишь предоставлением доступа к создаваемому пользователями каталогу ссылок на торрент-файлы, которые содержат только списки хеш-сумм, убедительная просьба с жалобами обращаться напрямую к пользователю. Файлы для обмена на трекере предоставлены пользователями сайта, и администрация не несёт ответственности за их содержание. Просьба не заливать файлы, защищенные авторскими правами, а также файлы нелегального содержания!


    _________________
    [Профиль] [ЛС]
    Показать сообщения:    
    Ответить на тему

    Текущее время: Сегодня, в 05:57

    Часовой пояс: GMT + 2



    Вы не можете начинать темы
    Вы не можете отвечать на сообщения
    Вы не можете редактировать свои сообщения
    Вы не можете удалять свои сообщения
    Вы не можете голосовать в опросах
    Вы не можете прикреплять файлы к сообщениям
    Вы не можете скачивать файлы