BitTorrentTracker PerecTracker.org
BitTorrentTracker PerecTracker.org
    
Регистрация  ·  Вход
 
 · 
Забыли пароль?

  • В лабиринте молчания / Im Labyrinth des Schweigens (Джулио Риччиарелли / Giulio Ricciarelli) [2014, Германия, история, драма, BDRip] MVO (FocusStudio) + Original Ger + Sub Rus

    Ответить на тему
     
    Автор Сообщение

    Light

    Создавать темы 27-Апр-2016 20:35

           

    [Цитировать]

    -В лабиринте молчания / Im Labyrinth des Schweigens-Год выпуска: 2014
    Страна: Германия
    Жанр: драма, история
    Продолжительность: 02:02:53
    Озвучание: профессиональное многоголосое закадровое (FocusStudio)
    Cубтитры: русские-Режиссер: Джулио Риччиарелли / Giulio Ricciarelli
    В ролях: Александр Фелинг, Андре Зиманский, Фредерике Бехт, Йоханнес Криш, Йохан фон Бюлов и другие-Описание: Фильм посвящен «Освенцимским процессам» — под таким названием в немецкую историю вошли суды над охранниками, надзирателями и прочим персоналом концлагеря Освенцим (Аушвиц), которые проходили во Франкфурте-на-Майне в 60-е годы. Молодой прокурор Йоханн Радманн обнаруживает сведения, изобличающие преступную деятельность бывшего персонала концлагеря.
    При поддержке генерального прокурора Фрица Бауэра (реальная фигура) он начинает расследование, в результате которого на скамье подсудимых оказалась целая «команда» лагерных палачей. Основная тема фильма — конфликт между теми, кто желает забыть прошлое во имя национального примирения в условиях «экономического чуда» и теми, кто стремится к установлению справедливости.-Релиз:
    Перевод: Елена Рыбакова- -Качество: BDRip (исх. BDRemux 1080p)
    Формат: AVI
    Видео: 720x304 (2.37:1), 23.976 fps, XviD ~1750 kbps avg, 0.333 bit/pixel
    Аудио Rus: AC3, 6 ch, 48 kHz, 384 kbps
    Аудио Ger: AC3, 6 ch, 48 kHz, 384 kbps-

    Скриншоты

    MediaInfo

    Format : AVI
    Format/Info : Audio Video Interleave
    Format profile : OpenDML
    File size : 2.18 GiB
    Duration : 2h 2mn
    Overall bit rate : 2 535 Kbps
    Writing application : VirtualDubMod 1.5.10.3 | www.virtualdub-fr.org || (build 2550/release)
    Writing library : VirtualDubMod build 2550/release
    Video
    ID : 0
    Format : MPEG-4 Visual
    Format profile : Advanced Simple@L5
    Format settings, BVOP : 1
    Format settings, QPel : No
    Format settings, GMC : No warppoints
    Format settings, Matrix : Default (MPEG)
    Codec ID : XVID
    Codec ID/Hint : XviD
    Duration : 2h 2mn
    Bit rate : 1 750 Kbps
    Width : 720 pixels
    Height : 304 pixels
    Display aspect ratio : 2.35:1
    Frame rate : 23.976 fps
    Color space : YUV
    Chroma subsampling : 4:2:0
    Bit depth : 8 bits
    Scan type : Progressive
    Compression mode : Lossy
    Bits/(Pixel*Frame) : 0.333
    Stream size : 1.50 GiB (69%)
    Writing library : XviD 73
    Audio #1
    ID : 1
    Format : AC-3
    Format/Info : Audio Coding 3
    Mode extension : CM (complete main)
    Format settings, Endianness : Big
    Codec ID : 2000
    Duration : 2h 2mn
    Bit rate mode : Constant
    Bit rate : 384 Kbps
    Channel(s) : 6 channels
    Channel positions : Front: L C R, Side: L R, LFE
    Sampling rate : 48.0 KHz
    Compression mode : Lossy
    Stream size : 338 MiB (15%)
    Alignment : Split accross interleaves
    Interleave, duration : 42 ms (1.00 video frame)
    Interleave, preload duration : 500 ms
    Title : Russian (FocusStudio)
    Audio #2
    ID : 2
    Format : AC-3
    Format/Info : Audio Coding 3
    Mode extension : CM (complete main)
    Format settings, Endianness : Big
    Codec ID : 2000
    Duration : 2h 2mn
    Bit rate mode : Constant
    Bit rate : 384 Kbps
    Channel(s) : 6 channels
    Channel positions : Front: L C R, Side: L R, LFE
    Sampling rate : 48.0 KHz
    Compression mode : Lossy
    Stream size : 338 MiB (15%)
    Alignment : Split accross interleaves
    Interleave, duration : 42 ms (1.00 video frame)
    Interleave, preload duration : 500 ms
    Title : German
    Скачать .torrent

    Скачать торрент-файл бесплатно и на максимальной скорости!

    Как скачивать? · Что такое торрент? · Рейтинг и ограничения

    !ВНИМАНИЕ!
    Сайт не распространяет и не хранит электронные версии произведений, а занимается лишь лишь предоставлением доступа к создаваемому пользователями каталогу ссылок на торрент-файлы, которые содержат только списки хеш-сумм, убедительная просьба с жалобами обращаться напрямую к пользователю. Файлы для обмена на трекере предоставлены пользователями сайта, и администрация не несёт ответственности за их содержание. Просьба не заливать файлы, защищенные авторскими правами, а также файлы нелегального содержания!


    _________________
    [Профиль] [ЛС]
    Показать сообщения:    
    Ответить на тему

    Текущее время: Сегодня, в 03:01

    Часовой пояс: GMT + 2



    Вы не можете начинать темы
    Вы не можете отвечать на сообщения
    Вы не можете редактировать свои сообщения
    Вы не можете удалять свои сообщения
    Вы не можете голосовать в опросах
    Вы не можете прикреплять файлы к сообщениям
    Вы не можете скачивать файлы