BitTorrentTracker PerecTracker.org
BitTorrentTracker PerecTracker.org
    
Регистрация  ·  Вход
 
 · 
Забыли пароль?

  • Унижение / The Humbling (Барри Левинсон / Barry Levinson) [2014, США, драма, BDRip-AVC] MVO + Original (Eng) + Sub (eng)

    Ответить на тему
     
    Автор Сообщение

    Light

    Создавать темы 27-Апр-2016 20:35

           

    [Цитировать]

    Унижение
    The Humbling
    «Suicide is the role you write for yourself»

    Страна: США
    Жанр: драма
    Год выпуска: 2014
    Продолжительность: 01:46:58
    Перевод: Профессиональный (многоголосый закадровый) [Лицензия R5]
    Субтитры: английские (полные, SDH)
    Оригинальная аудиодорожка: Английский
    Режиссер: Барри Левинсон / Barry Levinson
    В ролях: Аль Пачино, Грета Гервиг, Дайэнн Уист, Кира Седжвик, Нина Арианда, Билли Портер, Чарльз Гродин, Дилан Бейкер, Дэн Хедайя, Мэри Луиза Уилсон, Лэнс Робертс, Ли Цзюнь Ли
    Описание:
    Успешный и знаменитый, одарённый, но уже «навсегда уставший» и утративший вдохновение актер в предвкушении финала карьеры пытается покончить с собой. Любовь и отношения с девушкой значительно моложе его, кардинально меняют вектор сведения счетов.
    Автор рипа: Stalker oK
    Сэмпл
    Качество видео: BDRip-AVC [NovaLan / Blu-ray Remux / 1080p]
    Формат видео: MKV
    Видео кодек: AVC
    Аудио кодек: AC3
    Видео: 2025 Кбит/сек, 1060*444 (2,40:1), в 23,976 (24000/1001) кадра/сек, AVC
    Аудио #1: русский, 448 Кбит/сек, 48 КГц, 16 бит, 5.1, AC3
    Аудио #2: английский, 448 Кбит/сек, 48 КГц, 16 бит, 5.1, AC3
    Навигация по главам: есть

    MediaInfo

    Общее
    Уникальный идентификатор : 177037303391917973735201444080384419045 (0x853024F6960EE9E38D5A5A2B70A724E5)
    Полное имя : M:\Rips\Humbling\Humbling.2014.BDRip-AVC.MVO.2.18Gb.stalkerok.new-team.mkv
    Формат : Matroska
    Версия формата : Version 4 / Version 2
    Размер файла : 2,18 Гбайт
    Продолжительность : 1 ч. 46 м.
    Общий поток : 2921 Кбит/сек
    Название фильма : The Humbling (2014) (New-Team) (Rip by Stalker oK)
    Дата кодирования : UTC 2016-02-05 15:50:56
    Программа кодирования : mkvmerge v8.6.1 ('Flying') 64bit
    Библиотека кодирования : libebml v1.3.3 + libmatroska v1.4.4
    Видео
    Идентификатор : 1
    Формат : AVC
    Формат/Информация : Advanced Video Codec
    Профиль формата : High@L4.1
    Параметр CABAC формата : Да
    Параметр ReFrames формата : 12 кадров
    Идентификатор кодека : V_MPEG4/ISO/AVC
    Продолжительность : 1 ч. 46 м.
    Битрейт : 2025 Кбит/сек
    Ширина : 1060 пикселей
    Высота : 444 пикселя
    Соотношение сторон : 2,40:1
    Режим частоты кадров : Постоянный
    Частота кадров : 23,976 (24000/1001) кадра/сек
    Цветовое пространство : YUV
    Субдискретизация насыщенности : 4:2:0
    Битовая глубина : 8 бит
    Тип развёртки : Прогрессивная
    Бит/(Пиксели*Кадры) : 0.179
    Размер потока : 1,51 Гбайт (69%)
    Заголовок : The Humbling (2014) (New-Team) (Rip by Stalker oK)
    Библиотека кодирования : x264 core 148 r2638 7599210
    Настройки программы : cabac=1 / ref=12 / deblock=1:-3:-3 / analyse=0x3:0x133 / me=umh / subme=11 / psy=1 / psy_rd=1.00:0.10 / mixed_ref=1 / me_range=48 / chroma_me=1 / trellis=2 / 8x8dct=1 / cqm=0 / deadzone=21,11 / fast_pskip=0 / chroma_qp_offset=-3 / threads=12 / lookahead_threads=3 / sliced_threads=0 / nr=0 / decimate=0 / interlaced=0 / bluray_compat=0 / constrained_intra=0 / bframes=13 / b_pyramid=2 / b_adapt=2 / b_bias=0 / direct=3 / weightb=1 / open_gop=0 / weightp=2 / keyint=240 / keyint_min=23 / scenecut=40 / intra_refresh=0 / rc_lookahead=60 / rc=2pass / mbtree=0 / bitrate=2025 / ratetol=1.0 / qcomp=0.70 / qpmin=0 / qpmax=69 / qpstep=4 / cplxblur=20.0 / qblur=0.5 / vbv_maxrate=50000 / vbv_bufsize=62500 / nal_hrd=none / filler=0 / ip_ratio=1.40 / pb_ratio=1.30 / aq=3:0.90
    Default : Да
    Forced : Нет
    Аудио #1
    Идентификатор : 2
    Формат : AC-3
    Формат/Информация : Audio Coding 3
    Расширение режима : CM (complete main)
    Параметр Endianness формата : Big
    Идентификатор кодека : A_AC3
    Продолжительность : 1 ч. 46 м.
    Вид битрейта : Постоянный
    Битрейт : 448 Кбит/сек
    Каналы : 6 каналов
    Расположение каналов : Front: L C R, Side: L R, LFE
    Частота : 48,0 КГц
    Частота кадров : 31,250 кадров/сек (1536 spf)
    Метод сжатия : С потерями
    Размер потока : 343 Мбайт (15%)
    Язык : Russian
    Default : Да
    Forced : Нет
    Аудио #2
    Идентификатор : 3
    Формат : AC-3
    Формат/Информация : Audio Coding 3
    Расширение режима : CM (complete main)
    Параметр Endianness формата : Big
    Идентификатор кодека : A_AC3
    Продолжительность : 1 ч. 46 м.
    Вид битрейта : Постоянный
    Битрейт : 448 Кбит/сек
    Каналы : 6 каналов
    Расположение каналов : Front: L C R, Side: L R, LFE
    Частота : 48,0 КГц
    Частота кадров : 31,250 кадров/сек (1536 spf)
    Метод сжатия : С потерями
    Размер потока : 343 Мбайт (15%)
    Язык : English
    Default : Нет
    Forced : Нет
    Текст #1
    Идентификатор : 4
    Формат : UTF-8
    Идентификатор кодека : S_TEXT/UTF8
    Идентификатор кодека/Информация : UTF-8 Plain Text
    Продолжительность : 1 ч. 42 м.
    Битрейт : 79 бит/сек
    Count of elements : 1934
    Размер потока : 59,7 Кбайт (0%)
    Язык : English
    Default : Нет
    Forced : Нет
    Текст #2
    Идентификатор : 5
    Формат : UTF-8
    Идентификатор кодека : S_TEXT/UTF8
    Идентификатор кодека/Информация : UTF-8 Plain Text
    Продолжительность : 1 ч. 42 м.
    Битрейт : 83 бит/сек
    Count of elements : 1990
    Размер потока : 62,4 Кбайт (0%)
    Заголовок : SDH
    Язык : English
    Default : Нет
    Forced : Нет
    Меню
    00:00:00.000 : en:Chapter 1
    00:11:39.948 : en:Chapter 2
    00:33:03.272 : en:Chapter 3
    00:45:49.079 : en:Chapter 4
    00:57:36.578 : en:Chapter 5
    01:06:42.081 : en:Chapter 6
    01:16:52.566 : en:Chapter 7
    01:25:32.127 : en:Chapter 8
    01:34:54.689 : en:Chapter 9
    01:43:00.215 : en:Chapter 10

    Скриншоты

    Скачать .torrent

    Скачать торрент-файл бесплатно и на максимальной скорости!

    Как скачивать? · Что такое торрент? · Рейтинг и ограничения

    !ВНИМАНИЕ!
    Сайт не распространяет и не хранит электронные версии произведений, а занимается лишь лишь предоставлением доступа к создаваемому пользователями каталогу ссылок на торрент-файлы, которые содержат только списки хеш-сумм, убедительная просьба с жалобами обращаться напрямую к пользователю. Файлы для обмена на трекере предоставлены пользователями сайта, и администрация не несёт ответственности за их содержание. Просьба не заливать файлы, защищенные авторскими правами, а также файлы нелегального содержания!


    _________________
    [Профиль] [ЛС]
    Показать сообщения:    
    Ответить на тему

    Текущее время: Сегодня, в 19:30

    Часовой пояс: GMT + 2



    Вы не можете начинать темы
    Вы не можете отвечать на сообщения
    Вы не можете редактировать свои сообщения
    Вы не можете удалять свои сообщения
    Вы не можете голосовать в опросах
    Вы не можете прикреплять файлы к сообщениям
    Вы не можете скачивать файлы