BitTorrentTracker PerecTracker.org
BitTorrentTracker PerecTracker.org
    
Регистрация  ·  Вход
 
 · 
Забыли пароль?

  • Мандарины / Mandariinid (Заза Урушадзе / Zaza Urushadze) [2013, Эстония, Грузия, драма, военный, BDRip-AVC] Original (Rus / Est) + Sub (Rus)

    Ответить на тему
     
    Автор Сообщение

    Light

    Создавать темы 27-Апр-2016 20:35

           

    [Цитировать]

    Мандарины
    Mandariinid

    Страна: Эстония, Грузия
    Жанр: драма, военный
    Год выпуска: 2013
    Продолжительность: 01:22:59
    Перевод: Не требуется (русский / эстонский) [Лицензия Blu-ray SPA]
    Субтитры: русские (Forced) на эстонскую речь
    Оригинальная аудиодорожка: русский / эстонский
    Режиссер: Заза Урушадзе / Zaza Urushadze
    В ролях: Лембит Ульфсак, Георгий Накашидзе, Элмо Нюганен, Миша Месхи, Райво Трасс, Зура Бегалишвили, Давид Хахидзе, Джано Изория, Гия Гогишвили, Вамех Янгидзе, Алеко Бегалишвили, Темо Хуцишвили
    Описание:
    1992 год, Абхазия. Древнее эстонское село, расположенное в живописном месте между горами и морем, опустело - эстонцы вернулись на свою историческую родину. Остались только хозяин товарного цеха Иво, его сосед, владелец мандариновой плантации Маргус и местный доктор Юхан, который уже готов покинуть селение. Маргус также собирается уехать в Эстонию, но лишь после того, как будет собран урожай мандаринов. Война доходит до села, происходит боевое столкновение между грузинами и абхазцами. После боя Иво и Маргус находят одного оставшегося в живых чеченского наёмника по имени Ахмед, который воюет на абхазской стороне. Иво забирает Ахмеда к себе домой, чтобы его вылечить. Ночью, хороня погибших, Маргус обнаруживает, что, несмотря на тяжелое ранение, в бою выжил и один грузин - молодой парень Ника. Его тоже относят в дом Иво. Так под одной крышей оказываются бойцы противоборствующих сторон...
    Автор рипа: Stalker oK
    Сэмпл
    Качество видео: BDRip-AVC [Blu-ray 1080i]
    Формат видео: MKV
    Видео кодек: AVC
    Аудио кодек: AAC
    Видео: 1188 Кбит/сек, 888*372 (2,40:1), в 25,000 кадров/сек, AVC
    Аудио: Russian / Estonian, 64,0 Кбит/сек, 48,0 КГц / 24,0 КГц, 2 канала, AAC (HE-AAC / LC)
    Навигация по главам: есть

    MediaInfo

    Общее
    Уникальный идентификатор : 238042197657270355005329678034747049572 (0xB31542786539C81692D9F0097A2CC664)
    Полное имя : M:\Rips\Mandariinid\Mandariinid.2013.BDRip-AVC.745Mb.stalkerok.new-team.mkv
    Формат : Matroska
    Версия формата : Version 4 / Version 2
    Размер файла : 744 Мбайт
    Продолжительность : 1 ч. 22 м.
    Общий поток : 1254 Кбит/сек
    Название фильма : Mandariinid (2013) (New-Team) (Rip by Stalker oK)
    Дата кодирования : UTC 2016-04-27 17:26:00
    Программа кодирования : mkvmerge v8.6.1 ('Flying') 64bit
    Библиотека кодирования : libebml v1.3.3 + libmatroska v1.4.4
    Видео
    Идентификатор : 1
    Формат : AVC
    Формат/Информация : Advanced Video Codec
    Профиль формата : High@L4.1
    Параметр CABAC формата : Да
    Параметр ReFrames формата : 14 кадров
    Идентификатор кодека : V_MPEG4/ISO/AVC
    Продолжительность : 1 ч. 22 м.
    Битрейт : 1188 Кбит/сек
    Ширина : 888 пикселей
    Высота : 372 пикселя
    Соотношение сторон : 2,40:1
    Режим частоты кадров : Постоянный
    Частота кадров : 25,000 кадров/сек
    Цветовое пространство : YUV
    Субдискретизация насыщенности : 4:2:0
    Битовая глубина : 8 бит
    Тип развёртки : Прогрессивная
    Бит/(Пиксели*Кадры) : 0.144
    Размер потока : 705 Мбайт (95%)
    Заголовок : Mandariinid (2013) (New-Team) (Rip by Stalker oK)
    Библиотека кодирования : x264 core 146 r2538kMod 121396c
    Настройки программы : cabac=1 / ref=14 / deblock=1:-3:-3 / analyse=0x3:0x133 / me=umh / subme=11 / psy=1 / fade_compensate=0.00 / psy_rd=1.00:0.10 / mixed_ref=1 / me_range=48 / chroma_me=1 / trellis=2 / 8x8dct=1 / cqm=0 / deadzone=21,11 / fast_pskip=0 / chroma_qp_offset=-3 / threads=12 / lookahead_threads=2 / sliced_threads=0 / nr=0 / decimate=0 / interlaced=0 / bluray_compat=0 / constrained_intra=0 / fgo=0 / bframes=16 / b_pyramid=2 / b_adapt=2 / b_bias=0 / direct=3 / weightb=1 / open_gop=0 / weightp=2 / keyint=250 / keyint_min=25 / scenecut=40 / intra_refresh=0 / rc_lookahead=60 / rc=2pass / mbtree=0 / bitrate=1188 / ratetol=1.0 / qcomp=0.70 / qpmin=0 / qpmax=69 / qpstep=4 / cplxblur=20.0 / qblur=0.5 / vbv_maxrate=50000 / vbv_bufsize=62500 / nal_hrd=none / filler=0 / ip_ratio=1.40 / pb_ratio=1.30 / aq=3:1.00
    Default : Да
    Forced : Нет
    Аудио
    Идентификатор : 2
    Формат : AAC
    Формат/Информация : Advanced Audio Codec
    Профиль формата : HE-AAC / LC
    Идентификатор кодека : A_AAC
    Продолжительность : 1 ч. 22 м.
    Битрейт : 64,0 Кбит/сек
    Каналы : 2 канала
    Расположение каналов : Front: L R
    Частота : 48,0 КГц / 24,0 КГц
    Частота кадров : 23,438 кадра/сек (1024 spf)
    Метод сжатия : С потерями
    Задержка видео : 31 мс.
    Размер потока : 38,0 Мбайт (5%)
    Язык : Estonian
    Default : Да
    Forced : Нет
    Текст
    Идентификатор : 3
    Формат : UTF-8
    Идентификатор кодека : S_TEXT/UTF8
    Идентификатор кодека/Информация : UTF-8 Plain Text
    Продолжительность : 1 ч. 13 м.
    Битрейт : 16 бит/сек
    Count of elements : 165
    Размер потока : 8,75 Кбайт (0%)
    Заголовок : Forced
    Язык : Russian
    Default : Да
    Forced : Нет
    Меню
    00:00:00.000 : en:Chapter 1
    00:00:00.360 : en:Chapter 2
    00:09:45.440 : en:Chapter 3
    00:21:34.920 : en:Chapter 4
    00:31:32.079 : en:Chapter 5
    00:42:45.440 : en:Chapter 6
    00:49:31.599 : en:Chapter 7
    01:04:18.000 : en:Chapter 8
    01:15:23.479 : en:Chapter 9

    Скриншоты

    Скачать .torrent

    Скачать торрент-файл бесплатно и на максимальной скорости!

    Как скачивать? · Что такое торрент? · Рейтинг и ограничения

    !ВНИМАНИЕ!
    Сайт не распространяет и не хранит электронные версии произведений, а занимается лишь лишь предоставлением доступа к создаваемому пользователями каталогу ссылок на торрент-файлы, которые содержат только списки хеш-сумм, убедительная просьба с жалобами обращаться напрямую к пользователю. Файлы для обмена на трекере предоставлены пользователями сайта, и администрация не несёт ответственности за их содержание. Просьба не заливать файлы, защищенные авторскими правами, а также файлы нелегального содержания!


    _________________
    [Профиль] [ЛС]
    Показать сообщения:    
    Ответить на тему

    Текущее время: Сегодня, в 10:41

    Часовой пояс: GMT + 2



    Вы не можете начинать темы
    Вы не можете отвечать на сообщения
    Вы не можете редактировать свои сообщения
    Вы не можете удалять свои сообщения
    Вы не можете голосовать в опросах
    Вы не можете прикреплять файлы к сообщениям
    Вы не можете скачивать файлы