BitTorrentTracker PerecTracker.org
BitTorrentTracker PerecTracker.org
    
Регистрация  ·  Вход
 
 · 
Забыли пароль?

  • Петтсон и Финдус - Кот-космонавт / Pettson och Findus - Kattonauten (Альберт Ханан Камински / Albert Hanan Kaminski) [1999, Швеция, Германия, мультфильм, DVDRip] Dub

    Ответить на тему
     
    Автор Сообщение

    Flirldrerve

    Создавать темы 27-Апр-2016 20:35

           

    [Цитировать]

    Петтсон и Финдус - Кот-космонавт / Pettson och Findus - Kattonauten
    Страна: Швеция, Германия
    Жанр: мультфильм
    Продолжительность: 01:16:00
    Год выпуска: 1999
    Перевод: Профессиональный (дублированный)
    Русские субтитры: нет

    Режиссёр: Альберт Ханан Камински / Albert Hanan Kaminski
    Описание: Целая вереница захватывающих историй о фермере Петссоне и его верном коте Финдусе развернется на вашем экране. Петссон - житель сельской глубинки, он практически ни с кем не общается, поэтому его считают странным человеком. И только его темпераментный кот Финдус знает, что его хозяин - настоящий добряк. Верные друзья во всех делах и приключениях всегда готовы помочь друг другу.
    Петтсон и Финдус живут очень дружно. Петтсон - непутевый хозяин, который время от времени попадает в неловкие и смешные ситуации. Но Финдус, его преданный кот, очень любит своего хозяина. Если нужна лапа помощи или, в конце концов доброе слово, Финдус никогда не оставит в беде. Они часто вместе ходят в гости или на рыбалку, да и вообще всегда весело проводят время.
    Мультик создан по одной из самых популярных книжных серий для детей. Серия придумана и написана шведским писателем и иллюстратором Свеном Нурдквистом.

    Качество: DVDRip
    Формат: AVI
    Видео: 688x416 (1.65:1), 25 fps, XviD build 73 ~2121 kbps avg, 0.30 bit/pixel
    Аудио: 48 kHz, AC3 Dolby Digital, 3/2 (L,C,R,l,r) + LFE ch, ~448 kbps
    Субтитры: отсутствуют

    Подробные технические данные

    ОбщееПолное имя : H:\Pettson.och.Findus_Kattonauten.1999.dvdrip_[1.37]_[teko].aviФормат : AVIФормат/Информация : Audio Video InterleaveРазмер файла : 1,37 ГбайтПродолжительность : 1 ч. 16 м.Общий поток : 2573 Кбит/секПрограмма кодирования : VirtualDubMod 1.5.10.3 | www.virtualdub-fr.org || (build 2550/release)Библиотека кодирования : VirtualDubMod build 2550/release
    ВидеоИдентификатор : 0Формат : MPEG-4 VisualПрофиль формата : Advanced Simple@L5Параметр BVOP формата : 1Параметр QPel формата : НетПараметр GMC формата : Без точки переходаПараметр матрицы формата : ВыборочнаяИдентификатор кодека : XVIDИдентификатор кодека/Подсказка : XviDПродолжительность : 1 ч. 16 м.Битрейт : 2121 Кбит/секШирина : 688 пикселейВысота : 416 пикселейСоотношение сторон : 1,654Частота кадров : 25,000 кадров/секЦветовое пространство : YUVСубдискретизация насыщенности : 4:2:0Битовая глубина : 8 битТип развёртки : ПрогрессивнаяМетод сжатия : С потерямиБит/(Пиксели*Кадры) : 0.296Размер потока : 1,13 Гбайт (82%)Библиотека кодирования : XviD 73
    АудиоИдентификатор : 1Формат : AC-3Формат/Информация : Audio Coding 3Расширение режима : CM (complete main)Параметр Endianness формата : BigИдентификатор кодека : 2000Продолжительность : 1 ч. 15 м.Вид битрейта : ПостоянныйБитрейт : 448 Кбит/секКаналы : 6 каналовРасположение каналов : Front: L C R, Side: L R, LFEЧастота : 48,0 КГцБитовая глубина : 16 битМетод сжатия : С потерямиРазмер потока : 241 Мбайт (17%)Выравнивание : Разделение по промежуткамПродолжительность промежутка : 41 мс. (1,01 видеокадр)Время предзагрузки промежутка : 500 мс.

    Скриншоты

    Релиз группы:

    -
    -
    Скачать .torrent

    Скачать торрент-файл бесплатно и на максимальной скорости!

    Как скачивать? · Что такое торрент? · Рейтинг и ограничения

    !ВНИМАНИЕ!
    Сайт не распространяет и не хранит электронные версии произведений, а занимается лишь лишь предоставлением доступа к создаваемому пользователями каталогу ссылок на торрент-файлы, которые содержат только списки хеш-сумм, убедительная просьба с жалобами обращаться напрямую к пользователю. Файлы для обмена на трекере предоставлены пользователями сайта, и администрация не несёт ответственности за их содержание. Просьба не заливать файлы, защищенные авторскими правами, а также файлы нелегального содержания!


    _________________
    [Профиль] [ЛС]
    Показать сообщения:    
    Ответить на тему

    Текущее время: Сегодня, в 11:03

    Часовой пояс: GMT + 2



    Вы не можете начинать темы
    Вы не можете отвечать на сообщения
    Вы не можете редактировать свои сообщения
    Вы не можете удалять свои сообщения
    Вы не можете голосовать в опросах
    Вы не можете прикреплять файлы к сообщениям
    Вы не можете скачивать файлы