BitTorrentTracker PerecTracker.org
BitTorrentTracker PerecTracker.org
    
Регистрация  ·  Вход
 
 · 
Забыли пароль?

  • Человек-муравей / Ant-Man (Пейтон Рид / Peyton Reed) [2015, США, фантастика, боевик, комедия, приключения, HDRip] AVO (Гаврилов)

    Ответить на тему
     
    Автор Сообщение

    Light

    Создавать темы 27-Апр-2016 20:35

           

    [Цитировать]

    Человек-муравей / Ant-ManСтрана: США
    Жанр: фантастика, боевик, комедия, приключения
    Год выпуска: 2015
    Продолжительность: 01:57:06
    Перевод: Авторский (одноголосый закадровый) Андрей Гаврилов спасибо HDTracker
    Cубтитры: нет
    Режиссер: Пейтон Рид / Peyton Reed
    В ролях: Пол Радд, Майкл Дуглас, Эванджелин Лилли, Кори Столл, Майкл Пенья, Бобби Каннавале, Ти-Ай, Давид Дастмалчян, Эбби Райдер Фортсон, Джуди Грир
    Описание: Вооружившись удивительной способностью уменьшаться в размере, но обладать при этом большой силой, мошенник Скотт Лэнг должен стать героем и помочь своему наставнику, доктору Хэнку Пиму, сохранить в тайне существование костюма Человека-муравья от угроз нового поколения.

    Качество видео: HDRip
    Формат видео: AVI
    Видео кодек: XviD
    Аудио кодек: AC3
    Видео: 720x384 (1.88:1), 23.976 fps, XviD build 50 ~1323 kbps avg, 0.20 bit/pixel
    Аудио: 48 kHz, AC3 Dolby Digital, 3/2 (L,C,R,l,r) + LFE ch, ~448 kbps

    MediaInfo

    Полное имя : Человек-муравей.avi
    Формат : AVI
    Формат/Информация : Audio Video Interleave
    Размер файла : 1,46 Гбайт
    Продолжительность : 1 ч. 57 м.
    Общий поток : 1781 Кбит/сек
    Программа кодирования : VirtualDubMod 1.5.10.3 | www.virtualdub-fr.org || (build 2550/release)
    Библиотека кодирования : VirtualDubMod build 2550/release
    Видео
    Идентификатор : 0
    Формат : MPEG-4 Visual
    Профиль формата : Advanced Simple@L5
    Параметр BVOP формата : 2
    Параметр QPel формата : Нет
    Параметр GMC формата : Без точки перехода
    Параметр матрицы формата : Default (MPEG)
    Идентификатор кодека : XVID
    Идентификатор кодека/Подсказка : XviD
    Продолжительность : 1 ч. 57 м.
    Битрейт : 1324 Кбит/сек
    Ширина : 720 пикселей
    Высота : 384 пикселя
    Соотношение сторон : 1,85:1
    Частота кадров : 23,976 кадра/сек
    Цветовое пространство : YUV
    Субдискретизация насыщенности : 4:2:0
    Битовая глубина : 8 бит
    Тип развёртки : Прогрессивная
    Метод сжатия : С потерями
    Бит/(Пиксели*Кадры) : 0.200
    Размер потока : 1,08 Гбайт (74%)
    Библиотека кодирования : XviD 1.2.1 (UTC 2008-12-04)
    Аудио
    Идентификатор : 1
    Формат : AC-3
    Формат/Информация : Audio Coding 3
    Расширение режима : CM (complete main)
    Параметр Endianness формата : Big
    Идентификатор кодека : 2000
    Продолжительность : 1 ч. 57 м.
    Вид битрейта : Постоянный
    Битрейт : 448 Кбит/сек
    Каналы : 6 каналов
    Расположение каналов : Front: L C R, Side: L R, LFE
    Частота : 48,0 КГц
    Метод сжатия : С потерями
    Размер потока : 375 Мбайт (25%)
    Выравнивание : Разделение по промежуткам
    Продолжительность промежутка : 42 мс. (1,00 видеокадр)
    Время предзагрузки промежутка : 500 мс.

    Скриншоты

    Скачать .torrent

    Скачать торрент-файл бесплатно и на максимальной скорости!

    Как скачивать? · Что такое торрент? · Рейтинг и ограничения

    !ВНИМАНИЕ!
    Сайт не распространяет и не хранит электронные версии произведений, а занимается лишь лишь предоставлением доступа к создаваемому пользователями каталогу ссылок на торрент-файлы, которые содержат только списки хеш-сумм, убедительная просьба с жалобами обращаться напрямую к пользователю. Файлы для обмена на трекере предоставлены пользователями сайта, и администрация не несёт ответственности за их содержание. Просьба не заливать файлы, защищенные авторскими правами, а также файлы нелегального содержания!


    _________________
    [Профиль] [ЛС]
    Показать сообщения:    
    Ответить на тему

    Текущее время: Сегодня, в 12:56

    Часовой пояс: GMT + 2



    Вы не можете начинать темы
    Вы не можете отвечать на сообщения
    Вы не можете редактировать свои сообщения
    Вы не можете удалять свои сообщения
    Вы не можете голосовать в опросах
    Вы не можете прикреплять файлы к сообщениям
    Вы не можете скачивать файлы