BitTorrentTracker PerecTracker.org
BitTorrentTracker PerecTracker.org
    
Регистрация  ·  Вход
 
 · 
Забыли пароль?

  • Крид: Наследие Рокки / Creed (Райан Куглер / Ryan Coogler) [2015, США, драма, спорт, BDRip 720p] Dub (iTunes) + MVO (IdeaFilm) + Original Eng + Sub Rus, Eng

    Ответить на тему
     
    Автор Сообщение

    Light

    Создавать темы 27-Апр-2016 16:30

           

    [Цитировать]

    Крид: Наследие Рокки / Creed-
    Название: Крид: Наследие Рокки
    Оригинальное название: Creed
    Страна: США
    Год выхода: 2015
    Жанр: Драма, спорт
    Продолжительность: 02:13:10
    Перевод:
    Профессиональный (дублированный) | iTunes
    Профессиональный (многоголосый, закадровый) (IDEAFILM)
    Оригинальная дорожка: английская
    Субтитры: русские, английские
    Главы: есть
    Режиссер: Райан Куглер
    В ролях: Майкл Б. Джордан, Сильвестр Сталлоне, Тесса Томпсон, Филисия Рашад, Андре Уорд, Тони Белью, Ричи Костер, Джейкоб ’Стич’ Дюран, Грэм МакТавиш, Вуд Харрис, Брайан Энтони Уилсон, Джои Эй, Кэш Гойнс, Кевин Кинг Темплтон, Лерой Уилсон мл., Маурицио Овейлл, Марк Смит, Джосу Ривера, Ганс Марреро, Мэнни Айала
    О фильме:
    В центре внимания сын Аполло Крида — первого серьезного соперника Рокки Бальбоа на ринге, впоследствии ставшего лучшим другом героя. Молодой человек не испытывает никакой страсти к боксу, впрочем, и его семья не желает видеть парня в ипостаси бойца. Тем не менее, талант отца в какой-то момент проявляется и в Криде-младшем, и юноша отправляется на поиски наставника, коим для него в итоге становится постаревший Рокки, тоже не слишком жаждущий возвращаться к старым делам. Даже в качестве тренера.

    Качество: BDRip 720p | L
    Формат: MKV
    Видео: MPEG-4 AVC, 1280x534, 5845 kbps, 2.40:1, 23,976 fps, High@4.1
    Аудио:
    Russian: 48 kHz, AC3 Dolby Digital, 3/2 (L,C,R,l,r) + LFE ch, ~384kbps | iTunes
    Russian: 48 kHz, DTS, 3/2 (L,C,R,l,r) + LFE ch, ~1509.00 kbps avg | IdeaFilm
    English: 48 kHz, DTS, 3/2 (L,C,R,l,r) + LFE ch, ~1509.00 kbps avg
    Формат субтитров: softsub (SRT)

    Скриншоты



    MediaInfo

    Уникальный идентификатор : 204290205423521883696633368433633289032 (0x99B0DCC60D0CB0318AAEA2134D686348)
    Полное имя : D:\L#TNClub\Creed.2015.BluRay.720p.DTS.x264-L.mkv
    Формат : Matroska
    Версия формата : Version 4 / Version 2
    Размер файла : 8,71 Гбайт
    Продолжительность : 2 ч. 13 м.
    Общий поток : 9366 Кбит/сек
    Название фильма : Creed.2015.BluRay.720p.DTS.x264-L
    Дата кодирования : UTC 2016-04-26 06:47:01
    Программа кодирования : mkvmerge v7.7.0 ('Six Voices') 32bit built on Feb 28 2015 23:23:00
    Библиотека кодирования : libebml v1.3.1 + libmatroska v1.4.2
    Обложка : Yes
    Attachments : cover.jpg
    Видео
    Идентификатор : 1
    Формат : AVC
    Формат/Информация : Advanced Video Codec
    Профиль формата : High@L4.1
    Параметр CABAC формата : Да
    Параметр ReFrames формата : 12 кадров
    Идентификатор кодека : V_MPEG4/ISO/AVC
    Продолжительность : 2 ч. 13 м.
    Битрейт : 5962 Кбит/сек
    Ширина : 1280 пикселей
    Высота : 534 пикселя
    Соотношение сторон : 2,40:1
    Режим частоты кадров : Постоянный
    Частота кадров : 23,976 (24000/1001) кадра/сек
    Цветовое пространство : YUV
    Субдискретизация насыщенности : 4:2:0
    Битовая глубина : 8 бит
    Тип развёртки : Прогрессивная
    Бит/(Пиксели*Кадры) : 0.364
    Размер потока : 5,55 Гбайт (64%)
    Заголовок : Creed.2015.BluRay.720p.DTS.x264-L
    Библиотека кодирования : x264 core 146 r2538 121396c
    Настройки программы : cabac=1 / ref=12 / deblock=1:-2:-1 / analyse=0x3:0x133 / me=umh / subme=11 / psy=1 / psy_rd=1.05:0.10 / mixed_ref=1 / me_range=32 / chroma_me=1 / trellis=2 / 8x8dct=1 / cqm=0 / deadzone=21,11 / fast_pskip=0 / chroma_qp_offset=-4 / threads=6 / lookahead_threads=1 / sliced_threads=0 / nr=0 / decimate=1 / interlaced=0 / bluray_compat=0 / constrained_intra=0 / bframes=9 / b_pyramid=2 / b_adapt=2 / b_bias=0 / direct=1 / weightb=1 / open_gop=0 / weightp=2 / keyint=230 / keyint_min=21 / scenecut=40 / intra_refresh=0 / rc_lookahead=60 / rc=crf / mbtree=0 / crf=17.0 / qcomp=0.70 / qpmin=0 / qpmax=69 / qpstep=4 / vbv_maxrate=30000 / vbv_bufsize=40000 / crf_max=0.0 / nal_hrd=none / filler=0 / ip_ratio=1.35 / pb_ratio=1.25 / aq=2:0.90
    Язык : English
    Default : Да
    Forced : Нет
    Аудио #1
    Идентификатор : 2
    Формат : AC-3
    Формат/Информация : Audio Coding 3
    Расширение режима : CM (complete main)
    Параметр Endianness формата : Big
    Идентификатор кодека : A_AC3
    Продолжительность : 2 ч. 13 м.
    Вид битрейта : Постоянный
    Битрейт : 384 Кбит/сек
    Каналы : 6 каналов
    Расположение каналов : Front: L C R, Side: L R, LFE
    Частота : 48,0 КГц
    Частота кадров : 31,250 кадров/сек (1536 spf)
    Метод сжатия : С потерями
    Размер потока : 366 Мбайт (4%)
    Заголовок : iTunes
    Язык : Russian
    Default : Да
    Forced : Нет
    Аудио #2
    Идентификатор : 3
    Формат : DTS
    Формат/Информация : Digital Theater Systems
    Режим : 16
    Параметр Endianness формата : Big
    Идентификатор кодека : A_DTS
    Продолжительность : 2 ч. 13 м.
    Вид битрейта : Постоянный
    Битрейт : 1509 Кбит/сек
    Каналы : 6 каналов
    Расположение каналов : Front: L C R, Side: L R, LFE
    Частота : 48,0 КГц
    Частота кадров : 93,750 кадра/сек (512 spf)
    Битовая глубина : 24 бит
    Метод сжатия : С потерями
    Размер потока : 1,40 Гбайт (16%)
    Заголовок : DTS5.1@1509
    Язык : Russian
    Default : Нет
    Forced : Нет
    Аудио #3
    Идентификатор : 4
    Формат : DTS
    Формат/Информация : Digital Theater Systems
    Режим : 16
    Параметр Endianness формата : Big
    Идентификатор кодека : A_DTS
    Продолжительность : 2 ч. 13 м.
    Вид битрейта : Постоянный
    Битрейт : 1509 Кбит/сек
    Каналы : 6 каналов
    Расположение каналов : Front: L C R, Side: L R, LFE
    Частота : 48,0 КГц
    Частота кадров : 93,750 кадра/сек (512 spf)
    Битовая глубина : 24 бит
    Метод сжатия : С потерями
    Размер потока : 1,40 Гбайт (16%)
    Заголовок : DTS5.1@1509
    Язык : English
    Default : Нет
    Forced : Нет
    Текст #1
    Идентификатор : 5
    Формат : UTF-8
    Идентификатор кодека : S_TEXT/UTF8
    Идентификатор кодека/Информация : UTF-8 Plain Text
    Продолжительность : 2 ч. 12 м.
    Битрейт : 105 бит/сек
    Count of elements : 2175
    Размер потока : 102 Кбайт (0%)
    Язык : Russian
    Default : Нет
    Forced : Нет
    Текст #2
    Идентификатор : 6
    Формат : UTF-8
    Идентификатор кодека : S_TEXT/UTF8
    Идентификатор кодека/Информация : UTF-8 Plain Text
    Продолжительность : 2 ч. 11 м.
    Битрейт : 68 бит/сек
    Count of elements : 2171
    Размер потока : 66,0 Кбайт (0%)
    Язык : English
    Default : Нет
    Forced : Нет
    Меню
    00:00:00.000 : en:00:00:00.000
    00:09:14.387 : en:00:09:14.387
    00:22:06.742 : en:00:22:06.742
    00:31:31.932 : en:00:31:31.932
    00:41:34.659 : en:00:41:34.659
    00:52:18.010 : en:00:52:18.010
    01:01:32.063 : en:01:01:32.063
    01:09:13.941 : en:01:09:13.941
    01:19:00.986 : en:01:19:00.986
    01:25:13.650 : en:01:25:13.650
    01:32:27.792 : en:01:32:27.792
    01:41:16.445 : en:01:41:16.445
    01:50:14.441 : en:01:50:14.441
    02:01:07.719 : en:02:01:07.719
    02:06:34.962 : en:02:06:34.962
    Скачать .torrent

    Скачать торрент-файл бесплатно и на максимальной скорости!

    Как скачивать? · Что такое торрент? · Рейтинг и ограничения

    !ВНИМАНИЕ!
    Сайт не распространяет и не хранит электронные версии произведений, а занимается лишь лишь предоставлением доступа к создаваемому пользователями каталогу ссылок на торрент-файлы, которые содержат только списки хеш-сумм, убедительная просьба с жалобами обращаться напрямую к пользователю. Файлы для обмена на трекере предоставлены пользователями сайта, и администрация не несёт ответственности за их содержание. Просьба не заливать файлы, защищенные авторскими правами, а также файлы нелегального содержания!


    _________________
    [Профиль] [ЛС]
    Показать сообщения:    
    Ответить на тему

    Текущее время: Сегодня, в 20:26

    Часовой пояс: GMT + 2



    Вы не можете начинать темы
    Вы не можете отвечать на сообщения
    Вы не можете редактировать свои сообщения
    Вы не можете удалять свои сообщения
    Вы не можете голосовать в опросах
    Вы не можете прикреплять файлы к сообщениям
    Вы не можете скачивать файлы