BitTorrentTracker PerecTracker.org
BitTorrentTracker PerecTracker.org
    
Регистрация  ·  Вход
 
 · 
Забыли пароль?

  • Проклятие / Проклятие Метеорита / The Curse / The Farm (Дэвид Кит / David Keith) [1987, США, Италия, ужасы, фантастика, BDRemux 1080p] DVO (НТВ+) + AVO (Гаврилов) + Sub Eng + Original Eng

    Ответить на тему
     
    Автор Сообщение

    Light

    Создавать темы 27-Апр-2016 16:30

           

    [Цитировать]

    Проклятие / Проклятие Метеорита / The Curse / The Farm
    Страна: США, Италия
    Студия: TransWorld Entertainment (TWE)
    Жанр: ужасы, фантастика
    Год выпуска: 1987
    Продолжительность: 01:30:26
    Перевод: Профессиональный (двухголосый закадровый) НТВ+
    Перевод 2: Авторский (одноголосый закадровый) А. Гаврилов
    Cубтитры: английские
    Оригинальная аудиодорожка: английский
    Режиссер: Дэвид Кит / David Keith
    В ролях: Уил Уитон, Клод Экинс, Мальколм Дэнар, Купер Хукаби, Джон Шнайдер, Эми Уитон, Стив Карлайл, Кэтлин Джордон Грегори, Хоуп Норт, Стив Дэвис
    Описание: В окрестностях одной из ферм в штате Теннесси как-то ночью упал метеорит. На следующую ночь из него вытекла странная коричневая жижа, тут же слившаяся с водой в ручье и смешавшаяся с почвой. Наутро поля покрылись буйной порослью и налились соком яблоки в садах. Вот только никто поначалу не заметил, что внутри плодов и овощей — гниль, черви и прочая ядовитая гадость. А когда заметили, то оказалось уже поздно…

    Sample
    Тип релиза: BDRemux 1080p
    Контейнер: MKV
    Видео: MPEG4 AVC Video, H264, 16:9, 1920x1080, 23.976 fps, 25428 Kbps
    Аудио: Russian (AC3, 2 ch, 192 kbps, 16 bits, 48.0 KHz) - DVO
    Аудио 2: Russian (AC3, 2 ch, 192 kbps, 16 bits, 48.0 KHz) - AVO
    Аудио 3: English (DTS-HD MA, 2 ch, 1560 kbps, 24 bits, 48.0 KHz / DTS core: 2 ch, 1509 kbps, 24 bits, 48.0 KHz) - оригинал
    Формат субтитров: softsub (SRT)

    MediaInfo

    General
    Unique ID : 230851495703303035506582550505784122501 (0xADAC617DF440D75B94F0CAD1EB849C85)
    Complete name : E:\The Curse 1987 BDRemux 1080p.mkv
    Format : Matroska
    Format version : Version 4 / Version 2
    File size : 17.3 GiB
    Duration : 1h 30mn
    Overall bit rate mode : Variable
    Overall bit rate : 27.4 Mbps
    Encoded date : UTC 2016-04-25 14:33:06
    Writing application : mkvmerge v6.1.0 ('Old Devil') built on Mar 2 2013 14:32:37
    Writing library : libebml v1.3.0 + libmatroska v1.4.0
    Video
    ID : 1
    Format : AVC
    Format/Info : Advanced Video Codec
    Format profile : High@L4.1
    Format settings, CABAC : Yes
    Format settings, ReFrames : 2 frames
    Format settings, GOP : M=1, N=5
    Codec ID : V_MPEG4/ISO/AVC
    Duration : 1h 30mn
    Bit rate mode : Variable
    Maximum bit rate : 32.2 Mbps
    Width : 1 920 pixels
    Height : 1 080 pixels
    Display aspect ratio : 16:9
    Frame rate mode : Constant
    Frame rate : 23.976 fps
    Color space : YUV
    Chroma subsampling : 4:2:0
    Bit depth : 8 bits
    Scan type : Progressive
    Language : English
    Default : Yes
    Forced : No
    Audio #1
    ID : 2
    Format : AC-3
    Format/Info : Audio Coding 3
    Mode extension : CM (complete main)
    Format settings, Endianness : Big
    Codec ID : A_AC3
    Duration : 1h 30mn
    Bit rate mode : Constant
    Bit rate : 192 Kbps
    Channel count : 2 channels
    Channel positions : Front: L R
    Sampling rate : 48.0 KHz
    Bit depth : 16 bits
    Compression mode : Lossy
    Stream size : 124 MiB (1%)
    Title : НТВ+
    Language : Russian
    Default : Yes
    Forced : No
    Audio #2
    ID : 3
    Format : AC-3
    Format/Info : Audio Coding 3
    Mode extension : CM (complete main)
    Format settings, Endianness : Big
    Codec ID : A_AC3
    Duration : 1h 30mn
    Bit rate mode : Constant
    Bit rate : 192 Kbps
    Channel count : 2 channels
    Channel positions : Front: L R
    Sampling rate : 48.0 KHz
    Bit depth : 16 bits
    Compression mode : Lossy
    Stream size : 124 MiB (1%)
    Title : А. Гаврилов
    Language : Russian
    Default : No
    Forced : No
    Audio #3
    ID : 4
    Format : DTS
    Format/Info : Digital Theater Systems
    Format profile : MA / Core
    Mode : 16
    Format settings, Endianness : Big
    Codec ID : A_DTS
    Duration : 1h 30mn
    Bit rate mode : Variable
    Bit rate : Unknown / 1 509 Kbps
    Channel count : 2 channels
    Channel positions : Front: L R
    Sampling rate : 48.0 KHz
    Bit depth : 24 bits
    Compression mode : Lossless / Lossy
    Language : English
    Default : No
    Forced : No
    Text
    ID : 5
    Format : UTF-8
    Codec ID : S_TEXT/UTF8
    Codec ID/Info : UTF-8 Plain Text
    Language : English
    Default : No
    Forced : No

    Скриншоты

    Скачать .torrent

    Скачать торрент-файл бесплатно и на максимальной скорости!

    Как скачивать? · Что такое торрент? · Рейтинг и ограничения

    !ВНИМАНИЕ!
    Сайт не распространяет и не хранит электронные версии произведений, а занимается лишь лишь предоставлением доступа к создаваемому пользователями каталогу ссылок на торрент-файлы, которые содержат только списки хеш-сумм, убедительная просьба с жалобами обращаться напрямую к пользователю. Файлы для обмена на трекере предоставлены пользователями сайта, и администрация не несёт ответственности за их содержание. Просьба не заливать файлы, защищенные авторскими правами, а также файлы нелегального содержания!


    _________________
    [Профиль] [ЛС]
    Показать сообщения:    
    Ответить на тему

    Текущее время: Сегодня, в 10:21

    Часовой пояс: GMT + 2



    Вы не можете начинать темы
    Вы не можете отвечать на сообщения
    Вы не можете редактировать свои сообщения
    Вы не можете удалять свои сообщения
    Вы не можете голосовать в опросах
    Вы не можете прикреплять файлы к сообщениям
    Вы не можете скачивать файлы