BitTorrentTracker PerecTracker.org
BitTorrentTracker PerecTracker.org
    
Регистрация  ·  Вход
 
 · 
Забыли пароль?

  • Они нашли Ад / They Found Hell (Ник Лион / Nick Lyon) [2015, США, ужасы, WEB-DLRip] MVO (iTunes)

    Ответить на тему
     
    Автор Сообщение

    Light

    Создавать темы 27-Апр-2016 16:30

           

    [Цитировать]

    -Они нашли АдThey Found Hell-Страна: США
    Жанр: ужасы
    Год выпуска: 2015
    Продолжительность: 01:27:13-Перевод: Профессиональный (многоголосый закадровый) iTunes
    Cубтитры: нет-Режиссер: Ник Лион / Nick Lyon-В ролях: Кэбби Бордерс, Мирела Берк, Хантер Канеди, Горан Ганчев, Джеймс Собол Келли, Иван Костадинов, Лори Кинастон, Надя Полякова, Макс Райнхарт-Описание: После случайного открытия портала в другое измерение студенты колледжа оказываются в ловушке, где за ними охотятся обитатели ада.--Качество видео: WEB-DLRip
    Формат видео: AVI
    Видео: Xvid 720x400 23.98fps 1 851 Kbps 0.268 Bits/(Pixel*Frame)
    Аудио: AC3 48.0 KHz 6ch 384kbps iTunes-

    MediaInfo

    General
    Complete name               : D:\Фильмы\Oni nashli Ad 2015 WEB-DLRip.avi
    Format                      : AVI
    Format/Info                 : Audio Video Interleave
    File size                   : 1.37 GiB
    Duration                    : 1h 27mn
    Overall bit rate            : 2 244 Kbps
    Writing application         : VirtualDubMod 1.5.10.3 | www.virtualdub-fr.org || (build 2550/release)
    Writing library             : VirtualDubMod build 2550/release
    Video
    ID                          : 0
    Format                      : MPEG-4 Visual
    Format profile              : Advanced Simple@L5
    Format settings, BVOP       : 2
    Format settings, QPel       : No
    Format settings, GMC        : No warppoints
    Format settings, Matrix     : Default (MPEG)
    Codec ID                    : XVID
    Codec ID/Hint               : XviD
    Duration                    : 1h 27mn
    Bit rate                    : 1 851 Kbps
    Width                       : 720 pixels
    Height                      : 400 pixels
    Display aspect ratio        : 16:9
    Frame rate                  : 23.976 (23976/1000) fps
    Color space                 : YUV
    Chroma subsampling          : 4:2:0
    Bit depth                   : 8 bits
    Scan type                   : Progressive
    Compression mode            : Lossy
    Bits/(Pixel*Frame)          : 0.268
    Stream size                 : 1.13 GiB (82%)
    Writing library             : XviD 1.2.1 (UTC 2008-12-04)
    Audio
    ID                          : 1
    Format                      : AC-3
    Format/Info                 : Audio Coding 3
    Mode extension              : CM (complete main)
    Format settings, Endianness : Big
    Codec ID                    : 2000
    Duration                    : 1h 27mn
    Bit rate mode               : Constant
    Bit rate                    : 384 Kbps
    Channel(s)                  : 6 channels
    Channel positions           : Front: L C R, Side: L R, LFE
    Sampling rate               : 48.0 KHz
    Frame rate                  : 31.250 fps (1536 spf)
    Compression mode            : Lossy
    Stream size                 : 240 MiB (17%)
    Alignment                   : Split accross interleaves
    Interleave, duration        : 42 ms (1.00 video frame)
    Interleave, preload duratio : 500 ms

    Скриншот c названием фильма

    Скриншоты

    -
    Скачать .torrent

    Скачать торрент-файл бесплатно и на максимальной скорости!

    Как скачивать? · Что такое торрент? · Рейтинг и ограничения

    !ВНИМАНИЕ!
    Сайт не распространяет и не хранит электронные версии произведений, а занимается лишь лишь предоставлением доступа к создаваемому пользователями каталогу ссылок на торрент-файлы, которые содержат только списки хеш-сумм, убедительная просьба с жалобами обращаться напрямую к пользователю. Файлы для обмена на трекере предоставлены пользователями сайта, и администрация не несёт ответственности за их содержание. Просьба не заливать файлы, защищенные авторскими правами, а также файлы нелегального содержания!


    _________________
    [Профиль] [ЛС]
    Показать сообщения:    
    Ответить на тему

    Текущее время: Сегодня, в 21:56

    Часовой пояс: GMT + 2



    Вы не можете начинать темы
    Вы не можете отвечать на сообщения
    Вы не можете редактировать свои сообщения
    Вы не можете удалять свои сообщения
    Вы не можете голосовать в опросах
    Вы не можете прикреплять файлы к сообщениям
    Вы не можете скачивать файлы