BitTorrentTracker PerecTracker.org
BitTorrentTracker PerecTracker.org
    
Регистрация  ·  Вход
 
 · 
Забыли пароль?

  • Дэдпул / Deadpool (Тим Миллер / Tim Miller) [2016, США, Канада, фантастика, боевик, комедия, WEB-DLRip-AVC] Dub + Sub (rus, ukr, eng)

    Ответить на тему
     
    Автор Сообщение

    rechyn

    Создавать темы 27-Апр-2016 00:08

           

    [Цитировать]

    Дэдпул
    Deadpool
    «Стань свидетелем, как он кончит»

    Страна: США, Канада
    Жанр: фантастика, боевик, комедия, приключения
    Год выпуска: 2016
    Продолжительность: 01:48:41
    Перевод: Профессиональный (полное дублирование) [Лицензия iTunes]
    Cубтитры: русские (форсированные, полные), украинские (форсированные, полные), английские (полные)
    Оригинальная аудиодорожка: нет
    Режиссер: Тим Миллер / Tim Miller
    В ролях: Райан Рейнольдс, Морена Баккарин, Эд Скрейн, ТиДжей Миллер, Джина Карано, Брианна Хилдебранд, Стефан Капичич, Лесли Уггэмс, Джед Риис, Каран Сони, Майкл Беняер, Стайл Дэйн
    Описание:
    Уэйд Уилсон - наёмник. Будучи побочным продуктом программы вооружённых сил под названием «Оружие X», Уилсон приобрёл невероятную силу, проворство и способность к исцелению. Но страшной ценой: его клеточная структура постоянно меняется, а здравомыслие сомнительно. Всё, чего Уилсон хочет, - это держаться на плаву в социальной выгребной яме. Но течение в ней слишком быстрое.
    Автор рипа: Stalker oK
    Сэмпл
    Качество видео: WEB-DLRip-AVC [HDCLUB / WEB-DL / 720p]
    Формат видео: MKV
    Видео кодек: AVC
    Аудио кодек: AC3
    Видео: 1534 Кбит/сек, 978x408 (2.40:1), 23,976 кадр/сек, AVC
    Аудио: русский, 384 Кбит/сек, 48 КГц, 16 бит, 5.1, AC3
    Навигация по главам: есть

    MediaInfo

    Общее
    Уникальный идентификатор : 176741132162020928710497377186448249090 (0x84F71A981D2817A3AD45624A1CF99102)
    Полное имя : M:\1Rips\Deadpool\Deadpool.2016.WEB-DLRip-AVC.Dub.1.45Gb.stalkerok.new-team.mkv
    Формат : Matroska
    Версия формата : Version 4 / Version 2
    Размер файла : 1,46 Гбайт
    Продолжительность : 1 ч. 48 м.
    Общий поток : 1918 Кбит/сек
    Название фильма : Deadpool (2016) (New-Team) (Rip by Stalker oK)
    Дата кодирования : UTC 2016-04-26 06:58:37
    Программа кодирования : mkvmerge v8.6.1 ('Flying') 64bit
    Библиотека кодирования : libebml v1.3.3 + libmatroska v1.4.4
    Видео
    Идентификатор : 1
    Формат : AVC
    Формат/Информация : Advanced Video Codec
    Профиль формата : High@L4.1
    Параметр CABAC формата : Да
    Параметр ReFrames формата : 14 кадров
    Идентификатор кодека : V_MPEG4/ISO/AVC
    Продолжительность : 1 ч. 48 м.
    Битрейт : 1534 Кбит/сек
    Ширина : 978 пикселей
    Высота : 408 пикселей
    Соотношение сторон : 2,40:1
    Режим частоты кадров : Постоянный
    Частота кадров : 23,976 (24000/1001) кадра/сек
    Цветовое пространство : YUV
    Субдискретизация насыщенности : 4:2:0
    Битовая глубина : 8 бит
    Тип развёртки : Прогрессивная
    Бит/(Пиксели*Кадры) : 0.160
    Размер потока : 1,16 Гбайт (80%)
    Заголовок : Deadpool (2016) (New-Team) (Rip by Stalker oK)
    Библиотека кодирования : x264 core 148 r2665kMod a01e339
    Настройки программы : cabac=1 / ref=14 / deblock=1:-3:-2 / analyse=0x3:0x133 / me=umh / subme=11 / psy=1 / fade_compensate=0.00 / psy_rd=1.00:0.05 / mixed_ref=1 / me_range=48 / chroma_me=1 / trellis=2 / 8x8dct=1 / cqm=0 / deadzone=21,11 / fast_pskip=0 / chroma_qp_offset=-3 / threads=12 / lookahead_threads=3 / sliced_threads=0 / nr=0 / decimate=0 / interlaced=0 / bluray_compat=0 / constrained_intra=0 / fgo=0 / bframes=15 / b_pyramid=2 / b_adapt=2 / b_bias=0 / direct=3 / weightb=1 / open_gop=0 / weightp=2 / keyint=240 / keyint_min=23 / scenecut=40 / intra_refresh=0 / rc_lookahead=60 / rc=2pass / mbtree=0 / bitrate=1534 / ratetol=1.0 / qcomp=0.70 / qpmin=0 / qpmax=69 / qpstep=4 / cplxblur=20.0 / qblur=0.5 / vbv_maxrate=50000 / vbv_bufsize=62500 / nal_hrd=none / filler=0 / ip_ratio=1.40 / pb_ratio=1.30 / aq=3:0.90
    Default : Да
    Forced : Нет
    Аудио
    Идентификатор : 2
    Формат : AC-3
    Формат/Информация : Audio Coding 3
    Расширение режима : CM (complete main)
    Параметр Endianness формата : Big
    Идентификатор кодека : A_AC3
    Продолжительность : 1 ч. 48 м.
    Вид битрейта : Постоянный
    Битрейт : 384 Кбит/сек
    Каналы : 6 каналов
    Расположение каналов : Front: L C R, Side: L R, LFE
    Частота : 48,0 КГц
    Частота кадров : 31,250 кадров/сек (1536 spf)
    Метод сжатия : С потерями
    Размер потока : 297 Мбайт (20%)
    Заголовок : AC3 5.1 @ 384 kbps - DUB, iTunes
    Язык : Russian
    Default : Да
    Forced : Нет
    Текст #1
    Идентификатор : 3
    Формат : UTF-8
    Идентификатор кодека : S_TEXT/UTF8
    Идентификатор кодека/Информация : UTF-8 Plain Text
    Продолжительность : 1 ч. 33 м.
    Битрейт : 0 бит/сек
    Count of elements : 3
    Размер потока : 136 байт (0%)
    Заголовок : Forced, iTunes
    Язык : Russian
    Default : Да
    Forced : Нет
    Текст #2
    Идентификатор : 4
    Формат : UTF-8
    Идентификатор кодека : S_TEXT/UTF8
    Идентификатор кодека/Информация : UTF-8 Plain Text
    Продолжительность : 1 ч. 47 м.
    Битрейт : 87 бит/сек
    Count of elements : 1404
    Размер потока : 68,8 Кбайт (0%)
    Заголовок : iTunes
    Язык : Russian
    Default : Нет
    Forced : Нет
    Текст #3
    Идентификатор : 5
    Формат : UTF-8
    Идентификатор кодека : S_TEXT/UTF8
    Идентификатор кодека/Информация : UTF-8 Plain Text
    Продолжительность : 1 ч. 47 м.
    Битрейт : 0 бит/сек
    Count of elements : 13
    Размер потока : 591 байт (0%)
    Заголовок : Forced, iTunes
    Язык : Ukrainian
    Default : Нет
    Forced : Нет
    Текст #4
    Идентификатор : 6
    Формат : UTF-8
    Идентификатор кодека : S_TEXT/UTF8
    Идентификатор кодека/Информация : UTF-8 Plain Text
    Продолжительность : 1 ч. 47 м.
    Битрейт : 92 бит/сек
    Count of elements : 1420
    Размер потока : 73,0 Кбайт (0%)
    Заголовок : iTunes
    Язык : Ukrainian
    Default : Нет
    Forced : Нет
    Текст #5
    Идентификатор : 7
    Формат : UTF-8
    Идентификатор кодека : S_TEXT/UTF8
    Идентификатор кодека/Информация : UTF-8 Plain Text
    Продолжительность : 1 ч. 44 м.
    Битрейт : 55 бит/сек
    Count of elements : 1383
    Размер потока : 43,0 Кбайт (0%)
    Заголовок : iTunes
    Язык : English
    Default : Нет
    Forced : Нет
    Меню
    00:00:00.000 : en:1
    00:03:02.724 : en:2
    00:05:51.017 : en:3
    00:09:28.818 : en:4
    00:13:17.087 : en:5
    00:16:46.713 : en:6
    00:20:10.541 : en:7
    00:22:04.404 : en:8
    00:27:07.623 : en:9
    00:31:56.953 : en:10
    00:36:49.704 : en:11
    00:41:04.166 : en:12
    00:44:43.760 : en:13
    00:46:54.599 : en:14
    00:50:08.960 : en:15
    00:53:16.022 : en:16
    00:55:31.032 : en:17
    00:59:05.746 : en:18
    01:03:03.233 : en:19
    01:07:04.432 : en:20
    01:09:13.561 : en:21
    01:12:27.713 : en:22
    01:16:44.386 : en:23
    01:20:41.706 : en:24
    01:25:51.390 : en:25
    01:31:01.783 : en:26
    01:34:44.964 : en:27
    01:39:50.728 : en:28

    Скриншоты

    Скачать .torrent

    Скачать торрент-файл бесплатно и на максимальной скорости!

    Как скачивать? · Что такое торрент? · Рейтинг и ограничения

    !ВНИМАНИЕ!
    Сайт не распространяет и не хранит электронные версии произведений, а занимается лишь лишь предоставлением доступа к создаваемому пользователями каталогу ссылок на торрент-файлы, которые содержат только списки хеш-сумм, убедительная просьба с жалобами обращаться напрямую к пользователю. Файлы для обмена на трекере предоставлены пользователями сайта, и администрация не несёт ответственности за их содержание. Просьба не заливать файлы, защищенные авторскими правами, а также файлы нелегального содержания!


    _________________
    [Профиль] [ЛС]
    Показать сообщения:    
    Ответить на тему

    Текущее время: Сегодня, в 00:06

    Часовой пояс: GMT + 2



    Вы не можете начинать темы
    Вы не можете отвечать на сообщения
    Вы не можете редактировать свои сообщения
    Вы не можете удалять свои сообщения
    Вы не можете голосовать в опросах
    Вы не можете прикреплять файлы к сообщениям
    Вы не можете скачивать файлы