BitTorrentTracker PerecTracker.org
BitTorrentTracker PerecTracker.org
    
Регистрация  ·  Вход
 
 · 
Забыли пароль?

  • Человек из стали / Man of Steel (Зак Снайдер / Zack Snyder) [2013, США, Фантастика, фэнтези, боевик, приключения, BDRip] Dub + AVO (Гаврилов) + AVO (Сербин) + Original (Eng) + Subs (Rus, Eng)

    Ответить на тему
     
    Автор Сообщение

    Light

    Создавать темы 27-Апр-2016 00:08

           

    [Цитировать]

    Человек из стали / Man of Steel-Год выпуска: 2013
    Страна: США, Канада, Великобритания / Warner Bros. Pictures
    Жанр: фантастика, фэнтези, боевик, приключения
    Продолжительность: 02:23:03
    Перевод (1): Профессиональный (полное дублирование) Лицензия, BD CEE
    Перевод (2): Авторский (одноголосый закадровый) Андрей Гаврилов
    Перевод (3): Авторский (одноголосый закадровый) Юрий Сербин
    Cубтитры: Русские (полные), Английские (полные, SDH, SDH-colored) (внешние .srt*)
    Оригинальная аудиодорожка: Английская-Режиссер:
    Зак Снайдер / Zack Snyder-В ролях:
    Генри Кавилл (Clark Kent /Kal-El), Эми Адамс (Lois Lane), Майкл Шеннон (General Zod), Рассел Кроу (Jor-El), Дайан Лэйн (Martha Kent), Кевин Костнер (Jonathan Kent), Антье Трауэ (Faora-Ul), Лоренс Фишбёрн (Perry White), Кристофер Мелони (Colonel Nathan Hardy), Гарри Дж. Ленникс (General Swanwick)-Описание:
    Кларк Кент/Кал-Эл — молодой человек, который чувствует себя чужаком из-за своей невероятной силы. Много лет назад он был отправлен на Землю с развитой планеты Криптон, и теперь задается вопросом: зачем? Воспитанный приемными родителями Мартой и Джонатаном Кентами, Кларк знает: обладать сверхспособностями — значит принимать сложные решения. Но когда человечество более всего нуждается в стабильности, оно подвергается нападению. Сможет ли герой восстановить мир, или воспользуется своей силой для того, чтобы окончательно его разрушить?-Релиз группы
    | IMDB | КиноПоиск | Сэмпл | (2.91 Gb)-Качество: BDRip [Man.Of.Steel.2013.1080p.BluRay.AVC.DTS-HD.MA.7.1-TRUEDEF]
    Формат: AVI
    Видео: 720x304 (2.37:1), 23.976 fps, XviD build 73 ~1996 kbps avg, 0.38 bit/pixel
    Аудио #1: 48 kHz, AC3 Dolby Digital, 3/2 (L,C,R,l,r) + LFE ch, ~448.00 kbps avg (DUB) RUS
    Аудио #2: 48 kHz, AC3 Dolby Digital, 3/2 (L,C,R,l,r) + LFE ch, ~448.00 kbps avg (ENG)
    Аудио #3: 48 kHz, AC3 Dolby Digital, 3/2 (L,C,R,l,r) + LFE ch, ~448.00 kbps avg (AVO) Андрей Гаврилов отдельно
    Аудио #4: 48 kHz, AC3 Dolby Digital, 3/2 (L,C,R,l,r) + LFE ch, ~448.00 kbps avg (AVO) Юрий Сербин отдельно-

    Скриншоты

    MediaInfo

    General
    Complete name                            : D:\Chelovek_iz_stali_2013_BDRip_[2.91]_by_Dalemake.avi
    Format                                   : AVI
    Format/Info                              : Audio Video Interleave
    Format profile                           : OpenDML
    File size                                : 2.91 GiB
    Duration                                 : 2h 23mn
    Overall bit rate                         : 2 909 Kbps
    Writing application                      : VirtualDubMod 1.5.10.3 | www.virtualdub-fr.org || (build 2550/release)
    Writing library                          : VirtualDubMod build 2550/release
    Video
    ID                                       : 0
    Format                                   : MPEG-4 Visual
    Format profile                           : Advanced Simple@L5
    Format settings, BVOP                    : 1
    Format settings, QPel                    : No
    Format settings, GMC                     : No warppoints
    Format settings, Matrix                  : Custom
    Codec ID                                 : XVID
    Codec ID/Hint                            : XviD
    Duration                                 : 2h 23mn
    Bit rate                                 : 1 998 Kbps
    Width                                    : 720 pixels
    Height                                   : 304 pixels
    Display aspect ratio                     : 2.35:1
    Frame rate                               : 23.976 fps
    Color space                              : YUV
    Chroma subsampling                       : 4:2:0
    Bit depth                                : 8 bits
    Scan type                                : Progressive
    Compression mode                         : Lossy
    Bits/(Pixel*Frame)                       : 0.381
    Stream size                              : 2.00 GiB (69%)
    Writing library                          : XviD 73
    Audio #1
    ID                                       : 1
    Format                                   : AC-3
    Format/Info                              : Audio Coding 3
    Mode extension                           : CM (complete main)
    Format settings, Endianness              : Big
    Codec ID                                 : 2000
    Duration                                 : 2h 23mn
    Bit rate mode                            : Constant
    Bit rate                                 : 448 Kbps
    Channel(s)                               : 6 channels
    Channel positions                        : Front: L C R, Side: L R, LFE
    Sampling rate                            : 48.0 KHz
    Bit depth                                : 16 bits
    Compression mode                         : Lossy
    Stream size                              : 458 MiB (15%)
    Alignment                                : Split accross interleaves
    Interleave, duration                     : 42 ms (1.00 video frame)
    Interleave, preload duration             : 500 ms
    Audio #2
    ID                                       : 2
    Format                                   : AC-3
    Format/Info                              : Audio Coding 3
    Mode extension                           : CM (complete main)
    Format settings, Endianness              : Big
    Codec ID                                 : 2000
    Duration                                 : 2h 23mn
    Bit rate mode                            : Constant
    Bit rate                                 : 448 Kbps
    Channel(s)                               : 6 channels
    Channel positions                        : Front: L C R, Side: L R, LFE
    Sampling rate                            : 48.0 KHz
    Bit depth                                : 16 bits
    Compression mode                         : Lossy
    Stream size                              : 458 MiB (15%)
    Alignment                                : Split accross interleaves
    Interleave, duration                     : 42 ms (1.00 video frame)
    Interleave, preload duration             : 500 ms

    Благодарности

    За перевод А. Гаврилова большое спасибо пользователям форума: forum.hdtracker:
    KpucTo161, rydanes, feldeger, друг feldegerа, nimph, GaryH, Pain_70, therox, Tehnar, dunhill200, Chistobaev, lexal, Role, TvarYuri, karantin66, -Джосс-, v111o, foxlight, Guyver, Savinex, _MyxAmoP_, carter64, Hattori Hanzo, Skibichok, Slimka, ZeRoNe, hulahup, Loki, ASUKEVICH, hal2001, Диммон, saenwert, Gangster.
    За перевода Ю. Сербина большое спасибо пользователям форума E180:
    dvd100, oleg-k, DMX-92, denis_mgn_1987, urassiks, Guyver, anvic, ANISKIN50, Slimka, MyxAmoP, пуля, ZeDOK, ultrajeka, YoGuRt-82, Ramis, Rayan, phaeton77, safreks, zeleniy, dir, AlBeOne, Loki1982, masta, Некрасов, tide, luka69, Iceman, Chistobaev, dark1982, Andrey_Tula, Марлон
    -
    Скачать .torrent

    Скачать торрент-файл бесплатно и на максимальной скорости!

    Как скачивать? · Что такое торрент? · Рейтинг и ограничения

    !ВНИМАНИЕ!
    Сайт не распространяет и не хранит электронные версии произведений, а занимается лишь лишь предоставлением доступа к создаваемому пользователями каталогу ссылок на торрент-файлы, которые содержат только списки хеш-сумм, убедительная просьба с жалобами обращаться напрямую к пользователю. Файлы для обмена на трекере предоставлены пользователями сайта, и администрация не несёт ответственности за их содержание. Просьба не заливать файлы, защищенные авторскими правами, а также файлы нелегального содержания!


    _________________
    [Профиль] [ЛС]
    Показать сообщения:    
    Ответить на тему

    Текущее время: Сегодня, в 00:35

    Часовой пояс: GMT + 2



    Вы не можете начинать темы
    Вы не можете отвечать на сообщения
    Вы не можете редактировать свои сообщения
    Вы не можете удалять свои сообщения
    Вы не можете голосовать в опросах
    Вы не можете прикреплять файлы к сообщениям
    Вы не можете скачивать файлы